↑↓Torrent.by
Поиск
Логин: Регистрация
Пароль: Восстановить пароль
Загрузка...

Черный ящик / Яма / Охота жить (1995, 1996, 1998) DVB от AND03AND

Скачать chernyy-yaschik-yama-ohota-zhit-1995-1996-1998-dvb-ot-and03and.torrent
U Магнитная ссылка Размер: 972.07 MB Раздают: 1718 Качают: 48 Добавлен: 2017-12-11 16:01:25
Черный ящик / Яма / Охота жить (1995, 1996, 1998) DVB от AND03AND

Название: Черный ящик / Яма / Охота жить
Год выхода: 1995, 1996, 1998
Жанр: Драма
Режиссер: Александр Колбышев

О фильме:
В данной раздаче представлено 3 короткометражных фильма белорусского режиссера Александра Колбышева, являющиеся его студенческими и дипломными работами снятыми на базе Беларусьфильм в мастерской режиссуры игрового кино Виктора Турова Белорусской Академии Искусств.

Запись потока *.ts с наземного цифрового телеканала "Беларусь 3".

Благодарность: за помощь с недостающим материалом Bartimeyse и  PavelDAS. Обоим большое спасибо!

Давно разыскивается. Представлен впервые в Инете!

Страна: Республика Беларусь
Студия: Беларусьфильм
Продолжительность: 00:09:59 + 00:09:46 + 00:32:27
Перевод: не требует

Файл
Кодек: AVC (H264)
Качество: DVB
Видео: MPEG4 Video (H264) 720(785)x576 (49:36) 25fps, ~2 218 kb/s
Звук: MPEG Audio 48000Hz stereo 256kbps
[+] Черный ящик (1995)

Учебная работа студента 2 курса А. Колбышева

Продолжительность: 00:09:59

В ролях: Анатолий Котенёв, Олег Корчиков, Вера Шипило, Иван Павлов, Татьяна Сулимонова, Геннадий Матыцкий

Описание:
Инвалид, бывший военный летчик-афганец переживает подробности своего последнего полета, завершившегося катастрофой.

Доп. информация:


Сценарист: Александр Колбышев
Оператор: Иван Гончарук
Композитор: О. Гусев
Художник: Кирилл Блохин

НАГРАДЫ, НОМИНАЦИИ, ФЕСТИВАЛИ
Участие на МКФ «Молодость-96» (Киев), КФ «Сталкер-96» (Москва).

Качество: DVB
Контейнер:  TS
Видео кодек: H.264
Аудио кодек: MP2
Видео: MPEG4 Video (H264) 720(785)x576 (49:36) 25fps, 2 209 kb/s
Аудио : MPEG Audio 48000Hz stereo 256kbps

MediaInfo
General
ID                             : 1 (0x1)
Complete name                  : D:Новая  земля 2Художественные фильмыЧерный ящик (1995) Яма (1996) Охота жить (1998)Черный ящик (1995) Яма (1996) Охота жить (1998)Черный ящик (1995).ts
Format                         : MPEG-TS
File size                      : 185 MiB
Duration                       : 9 min
Overall bit rate mode          : Variable
Overall bit rate               : 2 596 kb/s

Video
ID                             : 801 (0x321)
Menu ID                        : 1 (0x1)
Format                         : AVC
Format/Info                    : Advanced Video Codec
Format profile                 : Main@L3
Format settings, CABAC         : Yes
Format settings, ReFrames      : 4 frames
Codec ID                       : 27
Duration                       : 9 min
Bit rate                       : 2 209 kb/s
Width                          : 720 pixels
Height                         : 576 pixels
Display aspect ratio           : 4:3
Frame rate                     : 25.000 FPS
Standard                       : PAL
Color space                    : YUV
Chroma subsampling             : 4:2:0
Bit depth                      : 8 bits
Scan type                      : MBAFF
Scan type, store method        : Interleaved fields
Scan order                     : Top Field First
Bits/(Pixel*Frame)             : 0.213
Stream size                    : 158 MiB (85%)
Color range                    : Limited
Color primaries                : BT.601 PAL
Transfer characteristics       : BT.470 System B, BT.470 System G
Matrix coefficients            : BT.601

Audio
ID                             : 802 (0x322)
Menu ID                        : 1 (0x1)
Format                         : MPEG Audio
Format version                 : Version 1
Format profile                 : Layer 2
Codec ID                       : 3
Duration                       : 9 min
Bit rate mode                  : Constant
Bit rate                       : 256 kb/s
Channel(s)                     : 2 channels
Sampling rate                  : 48.0 kHz
Compression mode               : Lossy
Stream size                    : 18.3 MiB (10%)
Language                       : English



[+] Яма (1996)

Курсовая работа студента А. Колбышева

Продолжительность: 00:09:46

В ролях: Иван Мацкевич, Максим Беспалый, Игорь Денисов, Вячеслав Павлють, Александр Павлов

Описание: По мотивам рассказа Витаутаса Бубниса.

Август 1941. Первые дни войны. Немцы ведут на расстрел двух военнопленных. Офицер предлагает им сохранить свои жизни, но при одном условии...

Доп. информация:


Сценарист: Александр Колбышев
Оператор: Михаил Бродский
Художник: Игорь Хруцкий

НАГРАДЫ, НОМИНАЦИИ, ФЕСТИВАЛИ
Диплом жюри в номинации «Игровое кино» V ОРК студенческих фильмов «Св. Анна-98» (Москва).

Качество: DVB
Контейнер:  TS
Видео кодек: H.264
Аудио кодек: MP2
Видео: MPEG4 Video (H264) 720(785)x576 (49:36) 25fps, 2 219 kb/s
Аудио : MPEG Audio 48000Hz stereo 256kbps

MediaInfo
General
ID                             : 1 (0x1)
Complete name                  : D:Новая  земля 2Художественные фильмыЧерный ящик (1995) Яма (1996) Охота жить (1998)Черный ящик (1995) Яма (1996) Охота жить (1998)Яма (1996).ts
Format                         : MPEG-TS
File size                      : 182 MiB
Duration                       : 9 min
Overall bit rate mode          : Variable
Overall bit rate               : 2 606 kb/s

Video
ID                             : 801 (0x321)
Menu ID                        : 1 (0x1)
Format                         : AVC
Format/Info                    : Advanced Video Codec
Format profile                 : Main@L3
Format settings, CABAC         : Yes
Format settings, ReFrames      : 4 frames
Format settings, GOP           : M=4, N=24
Codec ID                       : 27
Duration                       : 9 min
Bit rate                       : 2 219 kb/s
Width                          : 720 pixels
Height                         : 576 pixels
Display aspect ratio           : 4:3
Frame rate                     : 25.000 FPS
Standard                       : PAL
Color space                    : YUV
Chroma subsampling             : 4:2:0
Bit depth                      : 8 bits
Scan type                      : MBAFF
Scan type, store method        : Interleaved fields
Scan order                     : Top Field First
Bits/(Pixel*Frame)             : 0.214
Stream size                    : 155 MiB (85%)
Color range                    : Limited
Color primaries                : BT.601 PAL
Transfer characteristics       : BT.470 System B, BT.470 System G
Matrix coefficients            : BT.601

Audio
ID                             : 802 (0x322)
Menu ID                        : 1 (0x1)
Format                         : MPEG Audio
Format version                 : Version 1
Format profile                 : Layer 2
Codec ID                       : 3
Duration                       : 9 min
Bit rate mode                  : Constant
Bit rate                       : 256 kb/s
Channel(s)                     : 2 channels
Sampling rate                  : 48.0 kHz
Compression mode               : Lossy
Stream size                    : 17.9 MiB (10%)
Language                       : English



[+] Охота жить (1998)

Дипломная работа режиссёра А. Колбышева

Продолжительность: 00:32:27

В ролях: Владимир Аникин, Геннадий Гарбук, Анатолий Котенёв, Иван Мацкевич, Александр Анисимов

Описание: По рассказу В.Шукшина.

История случайной встречи таежного охотника Никитича и молодого парня, бежавшего из мест заключения…

Доп. информация:


Сценарист: Александр Колбышев
Оператор: Юрий Елхов
Композитор: Василий Кондрасюк
Художник: Александр Чертович

НАГРАДЫ, НОМИНАЦИИ, ФЕСТИВАЛИ
Специальная премия МОКСПН и фонда Хан. Крум (Болгария) имени Андрея Тарковского МКФ «Золотой Витязь-98»: конкурс студенческого кино и дебютного фильма.

Качество: DVB
Контейнер:  TS
Видео кодек: H.264
Аудио кодек: MP2
Видео: MPEG4 Video (H264) 720(785)x576 (49:36) 25fps, 2 218 kb/s
Аудио : MPEG Audio 48000Hz stereo 256kbps

MediaInfo
General
ID                             : 1 (0x1)
Complete name                  : D:Новая  земля 2Художественные фильмыЧерный ящик (1995) Яма (1996) Охота жить (1998)Черный ящик (1995) Яма (1996) Охота жить (1998)Охота жить (1998).ts
Format                         : MPEG-TS
File size                      : 605 MiB
Duration                       : 32 min
Overall bit rate mode          : Variable
Overall bit rate               : 2 605 kb/s

Video
ID                             : 801 (0x321)
Menu ID                        : 1 (0x1)
Format                         : AVC
Format/Info                    : Advanced Video Codec
Format profile                 : Main@L3
Format settings, CABAC         : Yes
Format settings, ReFrames      : 4 frames
Format settings, GOP           : M=4, N=24
Codec ID                       : 27
Duration                       : 32 min
Bit rate                       : 2 218 kb/s
Width                          : 720 pixels
Height                         : 576 pixels
Display aspect ratio           : 4:3
Frame rate                     : 25.000 FPS
Standard                       : PAL
Color space                    : YUV
Chroma subsampling             : 4:2:0
Bit depth                      : 8 bits
Scan type                      : MBAFF
Scan type, store method        : Separated fields
Scan order                     : Top Field First
Bits/(Pixel*Frame)             : 0.214
Stream size                    : 515 MiB (85%)
Color range                    : Limited
Color primaries                : BT.601 PAL
Transfer characteristics       : BT.470 System B, BT.470 System G
Matrix coefficients            : BT.601

Audio
ID                             : 802 (0x322)
Menu ID                        : 1 (0x1)
Format                         : MPEG Audio
Format version                 : Version 1
Format profile                 : Layer 2
Codec ID                       : 3
Duration                       : 32 min
Bit rate mode                  : Constant
Bit rate                       : 256 kb/s
Channel(s)                     : 2 channels
Sampling rate                  : 48.0 kHz
Compression mode               : Lossy
Stream size                    : 59.4 MiB (10%)
Language                       : English



Скриншоты:
[+] Всего файлов в раздаче - 3:
Охота жить (1998).ts604.53 MB
Черный ящик (1995).ts185.40 MB
Яма (1996).ts182.15 MB

Текущая раздача:
ДатаКомментарии    РазмерПиры
2017-12-11 U Черный ящик / Яма / Охота жить (1995, 1996, 1998) DVB от AND03AND 1 К 972.07 MB ↑ 1718 ↓ 48

Показать еще раздачи по запросу черный:
2018-04-03 U Ричард Морган - Черный человек (2018) FB2 3.98 MB ↑ 114 ↓ 3
2018-03-31 U Стивен Кинг, Питер Страуб - Талисман 2. Чёрный дом (2018) MP3 2.53 GB ↑ 93 ↓ 15
2018-03-21 U Черный альпинист / Must alpinist (2015) DVDRip | GreenРай Studio 1К1.44 GB ↑ 142 ↓ 59
2018-02-22 U Тайны древних 7: Черный кинжал / Mystery of the Ancients 7: Black Dagger. CE (2018) PC 677.36 MB ↑ 111 ↓ 9
2018-01-15 U Черный список / The Blacklist [05х01-10 из 22] (2017) WEB-DLRip от qqss44 | LostFilm 5.02 GB ↑ 34 ↓ 66
2018-01-01 U Черный Кузнец - Сверхъестественное (2017) MP3 223.79 MB ↑ 137 ↓ 26
2017-11-22 U Чёрный снег / Nieve negra (2017) BDRip 720p | L 2.76 GB ↑ 100 ↓ 41

Отзывы
Petraeva
Большое спасибо, маленькие но трогающие за душу фильмы. Интересно где сейчас эти режиссеры? снимают ли картины? С удовольствием посмотрел бы что--нибудь еще от них.

Зарегистрируйтесь чтобы добавить комментарий.
Обратная связь
Copyleft ©