↑↓Torrent.by
Поиск
Логин: Регистрация
Пароль: Восстановить пароль
Загрузка...

Тюльпанная лихорадка / Tulip Fever (2017) BDRip 720p | Лицензия

Скачать tyulpannaya-lihoradka-tulip-fever-2017-bdrip-720p-licenziya.torrent
U Магнитная ссылка Размер: 7.07 GB Раздают: 67 Качают: 43 Добавлен: 2017-12-11 18:52:20
Тюльпанная лихорадка / Tulip Fever (2017) BDRip 720p | Лицензия

Название: Тюльпанная лихорадка
Оригинальное название: Tulip Fever
Год выхода: 2017
Жанр: Драма, мелодрама
Режиссер: Джастин Чадвик
В ролях: Алисия Викандер, Дэйн ДеХаан, Кристоф Вальц, Зак Галифианакис, Джуди Денч, Холлидей Грейнджер, Джек О’Коннелл, Мэттью Моррисон, Кара Делевинь, Том Холландер

О фильме:
Голландия, 17 век. Луковицы прекрасных цветов становятся причиной баснословного богатства или унизительной нищеты. Жители Амстердама готовы ради них на все: обман, подлог… и даже убийство. В атмосфере всеобщей тюльпаномании страсть бедного художника к молодой обольстительной жене стареющего богатого торговца может завести очень далеко..

Страна: Великобритания, США
Студия: Paramount Pictures, Ruby Films, Worldview Entertainment
Продолжительность: 01:44:50
Перевод: Дублированный | Blu-ray RUS

Файл
Качество: BDRip 720p
Формат: MKV
Кодек: MPEG-4 AVC
Видео: 1280x536 (2,40:1), 23,976 fps, MPEG-4 AVC ~ 5988 Кbps avg, 0.364 bit/pixel
Аудио: DTS, 48,0 kHz, 6 ch, ~1510.00 kbps avg | русский | Blu-ray RUS
Аудио: AC3, 48,0 kHz, 6 ch, ~640.00 kbps avg | русский | Blu-ray RUS
Аудио: AC3, 48,0 kHz, 6 ch, ~1509.00 kbps avg | английский | Оригинал
Субтитры: Английские


[+] Инфо-файл
Общее
Уникальный идентификатор                 : 190692520019637540359778632377168516028 (0x8F760B1F6294460B9EB3DDDFB77B53BC)
Полное имя                               : Tulip.Fever.2017.D.BDRip.720p.Rus.Eng.mkv
Формат                                   : Matroska
Версия формата                           : Version 4 / Version 2
Размер файла                             : 7,07 Гбайт
Продолжительность                        : 1 ч. 44 м.
Общий поток                              : 9641 Кбит/сек
Название фильма                          : Тюльпанная лихорадка (2017)
Дата кодирования                         : UTC 2017-12-11 11:03:25
Программа кодирования                    : mkvmerge v9.7.1 ('Pandemonium') 64bit
Библиотека кодирования                   : libebml v1.3.4 + libmatroska v1.4.5

Видео
Идентификатор                            : 1
Формат                                   : AVC
Формат/Информация                        : Advanced Video Codec
Профиль формата                          : High@L4.1
Параметр CABAC формата                   : Да
Параметр ReFrames формата                : 12 кадров
Идентификатор кодека                     : V_MPEG4/ISO/AVC
Продолжительность                        : 1 ч. 44 м.
Битрейт                                  : 5988 Кбит/сек
Ширина                                   : 1280 пикселей
Высота                                   : 536 пикселей
Соотношение сторон                       : 2,40:1
Режим частоты кадров                     : Постоянный
Частота кадров                           : 23,976 (24000/1001) кадра/сек
Цветовое пространство                    : YUV
Субдискретизация насыщенности            : 4:2:0
Битовая глубина                          : 8 бит
Тип развёртки                            : Прогрессивная
Бит/(Пиксели*Кадры)                      : 0.364
Размер потока                            : 4,39 Гбайт (62%)
Заголовок                                : Tulip.Fever.2017.D.BDRip.720p.Rus.Eng
Библиотека кодирования                   : x264 core 152 r2851+58 429492e t_mod_Custom [8-bit@all X86_64]
Настройки программы                      : cabac=1 / ref=12 / deblock=1:-3:-3 / analyse=0x3:0x133 / me=umh / subme=10 / psy=1 / fade_compensate=0.00 / psy_rd=1.00:0.00 / mixed_ref=1 / me_range=32 / chroma_me=1 / trellis=2 / 8x8dct=1 / cqm=0 / deadzone=21,11 / fast_pskip=0 / chroma_qp_offset=-2 / threads=12 / lookahead_threads=2 / sliced_threads=0 / nr=0 / decimate=0 / interlaced=0 / bluray_compat=0 / constrained_intra=0 / fgo=0 / bframes=8 / b_pyramid=2 / b_adapt=2 / b_bias=0 / direct=3 / weightb=1 / open_gop=0 / weightp=2 / keyint=250 / keyint_min=23 / scenecut=40 / intra_refresh=0 / rc_lookahead=60 / rc=crf / mbtree=0 / crf=14.0000 / qcomp=0.60 / qpmin=0:0:0 / qpmax=69:69:69 / qpstep=4 / vbv_maxrate=62500 / vbv_bufsize=78125 / crf_max=0.0 / nal_hrd=none / filler=0 / ip_ratio=1.30 / pb_ratio=1.20 / aq=3:0.80 / aq-sensitivity=10.00 / aq-factor=1.00:1.00:1.00 / aq2=0 / aq3=0 / zones=267,1033,crf=11/12591,13015,crf=10/18942,19134,crf=10/32625,33395,crf=10/45295,45497,crf=10/46433,46518,crf=10/46738,46958,crf=10/47794,47899,crf=10/60864,60969,crf=10/63087,63380,crf=10/63812,64089,crf=10/96786,96877,crf=10/110159,110346,crf=10/110528,110761,crf=10/128288,128355,crf=9/140310,150815,b=0.5
Язык                                     : English
Default                                  : Да
Forced                                   : Нет
Цветовой диапазон                        : Limited
Коэффициенты матрицы                     : BT.709

Аудио #1
Идентификатор                            : 2
Формат                                   : DTS
Формат/Информация                        : Digital Theater Systems
Режим                                    : 16
Параметр Endianness формата              : Big
Идентификатор кодека                     : A_DTS
Продолжительность                        : 1 ч. 44 м.
Вид битрейта                             : Постоянный
Битрейт                                  : 1510 Кбит/сек
Каналы                                   : 6 каналов
Расположение каналов                     : Front: L C R, Side: L R, LFE
Частота                                  : 48,0 КГц
Частота кадров                           : 93,750 кадра/сек (512 spf)
Битовая глубина                          : 24 бит
Метод сжатия                             : С потерями
Размер потока                            : 1,11 Гбайт (16%)
Заголовок                                : Blu-ray RUS
Язык                                     : Russian
Default                                  : Да
Forced                                   : Нет

Аудио #2
Идентификатор                            : 3
Формат                                   : AC-3
Формат/Информация                        : Audio Coding 3
Параметр Endianness формата              : Big
Идентификатор кодека                     : A_AC3
Продолжительность                        : 1 ч. 44 м.
Вид битрейта                             : Постоянный
Битрейт                                  : 640 Кбит/сек
Каналы                                   : 6 каналов
Расположение каналов                     : Front: L C R, Side: L R, LFE
Частота                                  : 48,0 КГц
Частота кадров                           : 31,250 кадров/сек (1536 spf)
Битовая глубина                          : 16 бит
Метод сжатия                             : С потерями
Размер потока                            : 481 Мбайт (7%)
Заголовок                                : Blu-ray RUS
Язык                                     : Russian
Default                                  : Нет
Forced                                   : Нет

Аудио #3
Идентификатор                            : 4
Формат                                   : DTS
Формат/Информация                        : Digital Theater Systems
Режим                                    : 16
Параметр Endianness формата              : Big
Идентификатор кодека                     : A_DTS
Продолжительность                        : 1 ч. 44 м.
Вид битрейта                             : Постоянный
Битрейт                                  : 1509 Кбит/сек
Каналы                                   : 6 каналов
Расположение каналов                     : Front: L C R, Side: L R, LFE
Частота                                  : 48,0 КГц
Частота кадров                           : 93,750 кадра/сек (512 spf)
Битовая глубина                          : 24 бит
Метод сжатия                             : С потерями
Размер потока                            : 1,11 Гбайт (16%)
Язык                                     : English
Default                                  : Нет
Forced                                   : Нет

Текст #1
Идентификатор                            : 5
Формат                                   : UTF-8
Идентификатор кодека                     : S_TEXT/UTF8
Идентификатор кодека/Информация          : UTF-8 Plain Text
Продолжительность                        : 1 ч. 43 м.
Битрейт                                  : 47 бит/сек
ElementCount                             : 1382
Размер потока                            : 36,2 Кбайт (0%)
Язык                                     : English
Default                                  : Нет
Forced                                   : Нет

Текст #2
Идентификатор                            : 6
Формат                                   : UTF-8
Идентификатор кодека                     : S_TEXT/UTF8
Идентификатор кодека/Информация          : UTF-8 Plain Text
Продолжительность                        : 1 ч. 44 м.
Битрейт                                  : 57 бит/сек
ElementCount                             : 1688
Размер потока                            : 43,9 Кбайт (0%)
Заголовок                                : SDH
Язык                                     : English
Default                                  : Нет
Forced                                   : Нет

Текст #3
Идентификатор                            : 7
Формат                                   : UTF-8
Идентификатор кодека                     : S_TEXT/UTF8
Идентификатор кодека/Информация          : UTF-8 Plain Text
Продолжительность                        : 1 ч. 44 м.
Битрейт                                  : 77 бит/сек
ElementCount                             : 1688
Размер потока                            : 59,1 Кбайт (0%)
Заголовок                                : SDH-Colored
Язык                                     : English
Default                                  : Нет
Forced                                   : Нет

Меню
00:00:00.000                             : en:00:00:00.000
00:03:33.130                             : en:00:03:33.130
00:08:58.204                             : en:00:08:58.204
00:14:48.304                             : en:00:14:48.304
00:20:30.563                             : en:00:20:30.563
00:26:29.421                             : en:00:26:29.421
00:33:44.648                             : en:00:33:44.648
00:39:13.935                             : en:00:39:13.935
00:45:54.293                             : en:00:45:54.293
00:51:56.697                             : en:00:51:56.697
00:58:29.339                             : en:00:58:29.339
01:05:36.766                             : en:01:05:36.766
01:11:57.104                             : en:01:11:57.104
01:18:23.657                             : en:01:18:23.657
01:23:05.480                             : en:01:23:05.480
01:27:29.619                             : en:01:27:29.619
01:32:55.361                             : en:01:32:55.361
01:37:29.802                             : en:01:37:29.802




Скриншоты:
[+] Всего файлов в раздаче - 1:
Tulip.Fever.2017.D.BDRip.720p.Rus.Eng.mkv7.07 GB

Текущая раздача:
ДатаКомментарии    РазмерПиры
2017-12-11 U Тюльпанная лихорадка / Tulip Fever (2017) BDRip 720p | Лицензия 7.07 GB ↑ 67 ↓ 43

Показать еще раздачи по запросу тюльпанная:
2017-12-14 U Тюльпанная лихорадка / Tulip Fever (2017) HDRip от Scarabey | Лицензия 1.45 GB ↑ 122 ↓ 15
2017-12-12 U Тюльпанная лихорадка / Tulip Fever (2017) BDRip 720p от New-Team | Лицензия 2.84 GB ↑ 31 ↓ 10
2017-12-12 U Тюльпанная лихорадка / Tulip Fever (2017) BDRip от ExKinoRay | Лицензия 1.46 GB ↑ 35 ↓ 7
2017-12-11 U Тюльпанная лихорадка / Tulip Fever (2017) BDRip 1080p | Лицензия 8.54 GB ↑ 63 ↓ 99
2017-12-11 U Тюльпанная лихорадка / Tulip Fever (2017) BDRip от MegaPeer | Лицензия 6К1.46 GB ↑ 1518 ↓ 109
2017-12-01 U Тюльпанная лихорадка / Tulip Fever (2017) HDRip от Scarabey | iTunes 1.40 GB ↑ 217 ↓ 35
2017-11-30 U Тюльпанная лихорадка / Tulip Fever (2017) BDRip-AVC от New-Team | iTunes 2.07 GB ↑ 124 ↓ 29

Отзывы
Зарегистрируйтесь чтобы добавить комментарий.
Обратная связь
Copyleft ©