↑↓Torrent.by
Поиск
Логин: Регистрация
Пароль: Восстановить пароль
Загрузка...

Viasat History. Проект «Наци»: Дьявольский замысел / Project Nazi: Blueprints of Evil [01-03 из 06] (2017) HDTVRip | Р1

Скачать viasat-history-proekt-naci-dyavolskiy-zamysel-project-nazi-blueprints-of-evil-01-03-iz-06-2017-hdtvrip-r1.torrent
U Магнитная ссылка Размер: 2.29 GB Раздают: 43 Качают: 15 Добавлен: 2017-12-13 16:21:28
Viasat History. Проект «Наци»: Дьявольский замысел / Project Nazi: Blueprints of Evil [01-03 из 06] (2017) HDTVRip | Р1

Проект «Наци»: Дьявольский замысел / Project Nazi: Blueprints of Evil

Страна: Великобритания
Производство: Midnight Oil Pictures
Год выпуска: 2017
Жанр:  документальный, военный, история
Продолжительность: х ~00:52:00

Режиссер: Билл Томас

В ролях: Майк Фордхэм, Анке Люддек, Алекс Сиборн

Описание: Идея величия и процветания новой Германии стоила более 50 миллионов жизней и попытки уничтожить целый мир. Сериал предлагает окунуться в дьявольский план самого страшного режима в истории. Как немцев соблазнила идеология нацизма с помощью выдающихся планов, отличной подготовки и коварной пропаганды...

Перевод: Профессиональный (одноголосый, закадровый)
Субтитры: нет

Качество: HDTVRip
Формат: AVI
Видео кодек: XviD
Аудио кодек: AС3
Видео: 720x400 (16:9), 25.000 fps, XviD build 73 ~1 900 kbps avg
Аудио: 48.0 kHz, AC3 Dolby Digital, 2/0 (L,R) ch, ~192 kbps | RUS

Дата премьеры (мир): 9 августа 2017

Релиз от: alf62
[+] Media Info
General
Формат                                   : AVI
Формат/Информация                        : Audio Video Interleave
Размер файла                             : 785 Мбайт
Продолжительность                        : 52 м.
Общий поток                              : 2102 Кбит/сек
Программа кодирования                    : VirtualDubMod 1.5.10.3 | (build 2550/release)
Библиотека кодирования                   : VirtualDubMod build 2550/release

Видео
Идентификатор                            : 0
Формат                                   : MPEG-4 Visual
Профиль формата                          : Advanced Simple@L5
Параметр BVOP формата                    : 2
Параметр QPel формата                    : Нет
Параметр GMC формата                     : Без точки перехода
Параметр матрицы формата                 : Default (MPEG)
Идентификатор кодека                     : XVID
Идентификатор кодека/Подсказка           : XviD
Продолжительность                        : 52 м.
Битрейт                                  : 1900 Кбит/сек
Ширина                                   : 720 пикселей
Высота                                   : 400 пикселей
Соотношение сторон                       : 16:9
Частота кадров                           : 25,000 кадров/сек
Цветовое пространство                    : YUV
Субдискретизация насыщенности            : 4:2:0
Битовая глубина                          : 8 бит
Тип развёртки                            : Прогрессивная
Метод сжатия                             : С потерями
Бит/(Пиксели*Кадры)                      : 0.264
Размер потока                            : 710 Мбайт (90%)
Библиотека кодирования                   : XviD 73

Аудио
Идентификатор                            : 1
Формат                                   : AC-3
Формат/Информация                        : Audio Coding 3
Расширение режима                        : CM (complete main)
Параметр Endianness формата              : Big
Идентификатор кодека                     : 2000
Продолжительность                        : 52 м.
Вид битрейта                             : Постоянный
Битрейт                                  : 192 Кбит/сек
Каналы                                   : 2 канала
Расположение каналов                     : Front: L R
Частота                                  : 48,0 КГц
Битовая глубина                          : 16 бит
Метод сжатия                             : С потерями
Размер потока                            : 71,7 Мбайт (9%)
Выравнивание                             : Разделение по промежуткам
Продолжительность промежутка             : 40  мс. (1,00 видеокадр)
Время предзагрузки промежутка            : 500  мс.



Скриншоты:
[+] Всего файлов в раздаче - 3:
Проект.«Наци».(1.серия).Путь.к.власти.2017.XviD.HDTVRip.alf62.avi785.00 MB
Проект.«Наци».(2.серия).Автобаны.Гитлера.2017.XviD.HDTVRip.alf62.avi780.02 MB
Проект.«Наци».(3.серия).Военная.промышленность.2017.XviD.HDTVRip.alf62.avi778.36 MB

Текущая раздача:
ДатаКомментарии    РазмерПиры
2017-12-13 U Viasat History. Проект «Наци»: Дьявольский замысел / Project Nazi: Blueprints of Evil [01-03 из 06] (2017) HDTVRip | Р1 2.29 GB ↑ 43 ↓ 15

Показать еще раздачи по запросу viasat:
2018-01-13 U Viasat History. Проект «Наци»: Дьявольский замысел / Project Nazi: Blueprints of Evil [01-06 из 06] (2017) HDTVRip 720р | Р1 8.44 GB ↑ 26 ↓ 14
2018-01-12 U Viasat History. Проект «Наци»: Дьявольский замысел / Project Nazi: Blueprints of Evil [01-06 из 06] (2017) HDTVRip | Р1 4.57 GB ↑ 54 ↓ 33
2014-05-21 U NBA Playoffs 2014 / East / Final / Gamе 2 / 20.05.2014 / Miami Heat @ Indiana Pacers [HD/720p, RU / Viasat] 2.75 GB ↑ 587 ↓ 159
2014-03-05 U NBA 2013-2014 / RS / 04.03.2014 / Miami Heat @ Houston Rockets [Баскетбол, SD, MKV/408p, RU / Viasat] 1.35 GB ↑ 272 ↓ 82
2014-02-17 U Баскетбол. NBA All-Star Weekend 2014. East @ West. Viasat [14-16.02] (2013) SATRip 2.19 GB ↑ 110 ↓ 6
2013-12-26 U Баскетбол. NBA 13/14. RS: Miami Heat @ Los Angeles Lakers. Viasat [25.12] (2013) SATRip 1.18 GB ↑ 59 ↓ 16
2013-12-04 U NBA 2013-2014 / RS / 03.12.2013 / Denver Nuggets @ Brooklyn Nets [SD, MKV/400, RU / Viasat] 2К1.25 GB ↑ 17 ↓ 0

Отзывы
Зарегистрируйтесь чтобы добавить комментарий.
Обратная связь
Copyleft ©