↑↓Torrent.by
Поиск
Логин: Регистрация
Пароль: Восстановить пароль
Загрузка...

Стань легендой! Бигфут Младший / The Son of Bigfoot (2017) BDRemux 1080p от ExKinoRay | iTunes

Скачать stan-legendoy-bigfut-mladshiy-the-son-of-bigfoot-2017-bdremux-1080p-ot-exkinoray-itunes.torrent
U Магнитная ссылка Размер: 20.03 GB Раздают: 45 Качают: 20 Добавлен: 2017-12-15 14:36:25
Стань легендой! Бигфут Младший / The Son of Bigfoot (2017) BDRemux 1080p от ExKinoRay | iTunes

Название: Стань легендой! Бигфут Младший
Оригинальное название: The Son of Bigfoot
Год выхода: 2017
Жанр: Мультфильм, комедия, семейный
Режиссер: Жереми Дегрусон, Бен Стассен
В ролях: Синда Адамс, Боб Барлен, Кэллан Брункер, Джои Камен, Дэвид Эпштейн, Кристофер Л. Парсон, Джо Томас

О фильме:
Обычный подросток по имени Адам отправляется на поиски своего давно пропавшего отца и попадает в приключение мифических масштабов. Его мир переворачивается вверх дном, когда оказывается, что в нем течет кровь последних легендарных хранителей леса — бигфутов. Теперь ему открыты такие способности как суперскорость, живительное прикосновение и возможность понимать язык животных.

Страна: Франция, Бельгия
Студия: Belga Productions, Illuminata Pictures, nWave Pictures, Studio Canal, Waterman Entertainment
Продолжительность: 01:32:14
Перевод: Дублированный | iTunes

Файл
Качество: BDRemux 1080p
Видео: MPEG-4 AVC, 1920x1080, 28.1 Mbit/s, 23.976 fps
Звук:
Аудио #01: 48 kHz, AC3, 5.1, 384 Kbps | Дублированный | iTunes | RUS |
Аудио #02: 48 kHz, DTS-HD MA, 5.1, 2583 Kbps | Оригинал |  ENG |

Релиз: Автор релиза:


[+] MI
General
Unique ID                   : 180833904452703655920329764628576669987 (0x880B57D8FAB716C0976C2427A38D1123)
Complete name               : I:Video1The.Son.of.Bigfoot.2017.BDREMUX.1080p.ExKinoRay.mkv
Format                      : Matroska
Format version              : Version 4 / Version 2
File size                   : 20.0 GiB
Duration                    : 1 h 32 min
Overall bit rate mode       : Variable
Overall bit rate            : 31.1 Mb/s
Movie name                  : The Son of Bigfoot 2017 from ExKinoRay
Encoded date                : UTC 2017-12-14 01:48:43
Writing application         : mkvmerge v18.0.0 ('Apricity') 64-bit
Writing library             : libebml v1.3.5 + libmatroska v1.4.8

Video
ID                          : 1
Format                      : AVC
Format/Info                 : Advanced Video Codec
Format profile              : High@L4.1
Format settings             : CABAC / 2 Ref Frames
Format settings, CABAC      : Yes
Format settings, RefFrames  : 2 frames
Codec ID                    : V_MPEG4/ISO/AVC
Duration                    : 1 h 32 min
Bit rate mode               : Variable
Bit rate                    : 28.1 Mb/s
Maximum bit rate            : 37.2 Mb/s
Width                       : 1 920 pixels
Height                      : 1 080 pixels
Display aspect ratio        : 16:9
Frame rate mode             : Constant
Frame rate                  : 23.976 (24000/1001) FPS
Color space                 : YUV
Chroma subsampling          : 4:2:0
Bit depth                   : 8 bits
Scan type                   : Progressive
Bits/(Pixel*Frame)          : 0.565
Stream size                 : 18.1 GiB (90%)
Language                    : English
Default                     : Yes
Forced                      : No

Audio #1
ID                          : 2
Format                      : AC-3
Format/Info                 : Audio Coding 3
Format settings, Endianness : Big
Codec ID                    : A_AC3
Duration                    : 1 h 32 min
Bit rate mode               : Constant
Bit rate                    : 384 kb/s
Channel(s)                  : 6 channels
Channel positions           : Front: L C R, Side: L R, LFE
Sampling rate               : 48.0 kHz
Frame rate                  : 31.250 FPS (1536 SPF)
Bit depth                   : 16 bits
Compression mode            : Lossy
Stream size                 : 253 MiB (1%)
Title                       : iTunes
Language                    : Russian
Service kind                : Complete Main
Default                     : Yes
Forced                      : No

Audio #2
ID                          : 3
Format                      : DTS
Format/Info                 : Digital Theater Systems
Format profile              : MA / Core
Mode                        : 16
Format settings, Endianness : Big
Codec ID                    : A_DTS
Duration                    : 1 h 32 min
Bit rate mode               : Variable / Constant
Bit rate                    : 2 583 kb/s / 1 509 kb/s
Channel(s)                  : 6 channels
Channel positions           : Front: L C R, Side: L R, LFE
Sampling rate               : 48.0 kHz
Frame rate                  : 93.750 FPS (512 SPF)
Bit depth                   : 24 bits
Compression mode            : Lossless / Lossy
Delay relative to video     : 167 ms
Stream size                 : 1.66 GiB (8%)
Title                       : Original
Language                    : English
Default                     : No
Forced                      : No

Menu
00:00:00.000                : en:Chapter 1
00:07:24.193                : en:Chapter 2
00:14:53.767                : en:Chapter 3
00:22:11.788                : en:Chapter 4
00:30:27.492                : en:Chapter 5
00:39:25.613                : en:Chapter 6
00:48:17.269                : en:Chapter 7
00:55:43.673                : en:Chapter 8
01:02:39.130                : en:Chapter 9
01:11:40.212                : en:Chapter 10
01:20:37.082                : en:Chapter 11
01:27:56.521                : en:Chapter 12



Скриншоты:
[+] Всего файлов в раздаче - 1:
The.Son.of.Bigfoot.2017.BDREMUX.1080p.ExKinoRay.mkv20.03 GB

Отзывы
Зарегистрируйтесь чтобы добавить комментарий.
Обратная связь
Copyleft ©