↑↓Torrent.by
Поиск
Логин: Регистрация
Пароль: Восстановить пароль

Пастырь / Priest (2011) BDRip-AVC от ExKinoRay | D

Скачать pastyr-priest-2011-bdrip-avc-ot-exkinoray-d.torrent
U Магнитная ссылка Размер: 746.43 MB Раздают: 386 Качают: 22 Добавлен: 2017-12-18 19:06:16
Пастырь / Priest (2011) BDRip-AVC от ExKinoRay | D

Название: Пастырь
Оригинальное название: Priest
Год выхода: 2011
Жанр:  ужасы, фантастика, фэнтези, боевик, триллер
Режиссер: Скотт Чарльз Стюарт
В ролях: Пол Беттани, Карл Урбан, Кэм Жиганде, Мэгги Кью, Лили Коллинз, Брэд Дуриф, Стивен Мойер, Кристофер Пламмер, Алан Дэйл, Медкен Эмик

О фильме :
Война между людьми и вампирами шла уже длительное время. Вампиры во многом превосходили людей, но боялись солнечного света, однако человечество все же оказалось на грани вымирания. В этот кризисный момент Церкви удалось захватить власть в свои руки. Люди оказались заперты за стенами городов, которые были разбросаны в постапокалиптической пустыне. Церковью был создан орден пастырей, которые были специально обученными воинами, сражающимися против вампиров. После этого практически все вампиры были уничтожены, а те, кто остались в живых, были помещены в строго охраняемые резервации. После окончания войны Церковь распустила орден пастырей, но оказалось, что было слишком рано принимать столь опрометчивое решение.

Страна: США
Студия: Buckaroo Entertainment
Продолжительность: 01:27:27
Перевод: Профессиональный (полное дублирование)

Файл
Формат: MKV
Качество: BDRip-AVC (BDRemux 1080p)
Видео: MPEG-4 AVC, 768x320, ~ 1115 Кбит/с
Аудио:  AAC-LC, 2 ch, ~ 76 Кбит/с
Субтитры: Русские, английские

Релиз:


[+] MI
Общее
Уникальный идентификатор : 170201829482636750095226549945113497891 (0x800BAE146A456EAD8368E06AED3BD123)
Полное имя : D:MOVIESPriest.2011.ExKinoRay.mkv
Формат : Matroska
Версия формата : Version 4 / Version 2
Размер файла : 746 Мбайт
Продолжительность : 1 ч. 27 м.
Общий поток : 1193 Кбит/сек
Дата кодирования : UTC 2017-12-18 12:00:27
Программа кодирования : mkvmerge v15.0.0 ('Duel with the Devil') 64-bit
Библиотека кодирования : libebml v1.3.5 + libmatroska v1.4.5

Видео
Идентификатор : 1
Формат : AVC
Формат/Информация : Advanced Video Codec
Профиль формата : High@L4.1
Параметр CABAC формата : Да
Параметр RefFrames формата : 10 кадров
Идентификатор кодека : V_MPEG4/ISO/AVC
Продолжительность : 1 ч. 27 м.
Битрейт : 1115 Кбит/сек
Ширина : 768 пикселей
Высота : 320 пикселей
Соотношение сторон : 2,40:1
Режим частоты кадров : Постоянный
Частота кадров : 23,976 (24000/1001) кадра/сек
Цветовое пространство : YUV
Субдискретизация насыщенности : 4:2:0
Битовая глубина : 8 бит
Тип развёртки : Прогрессивная
Бит/(Пиксели*Кадры) : 0.189
Размер потока : 697 Мбайт (93%)
Библиотека кодирования : x264 core 152 r2851kMod ba24899
Настройки программы : cabac=1 / ref=10 / deblock=1:-3:-3 / analyse=0x3:0x133 / me=umh / subme=11 / psy=1 / fade_compensate=0.00 / psy_rd=1.00:0.05 / mixed_ref=1 / me_range=32 / chroma_me=1 / trellis=2 / 8x8dct=1 / cqm=0 / deadzone=21,11 / fast_pskip=0 / chroma_qp_offset=-3 / threads=6 / lookahead_threads=1 / sliced_threads=0 / nr=0 / decimate=0 / interlaced=0 / bluray_compat=0 / constrained_intra=0 / bframes=10 / b_pyramid=2 / b_adapt=2 / b_bias=0 / direct=3 / weightb=1 / open_gop=0 / weightp=2 / keyint=240 / keyint_min=23 / scenecut=40 / intra_refresh=0 / rc_lookahead=40 / rc=2pass / mbtree=1 / bitrate=1115 / ratetol=1.0 / qcomp=0.60 / qpmin=0 / qpmax=69 / qpstep=4 / cplxblur=20.0 / qblur=0.5 / vbv_maxrate=50000 / vbv_bufsize=62500 / nal_hrd=none / filler=0 / ip_ratio=1.40 / aq=3:1.00
Default : Да
Forced : Нет

Аудио
Идентификатор : 2
Формат : AAC
Формат/Информация : Advanced Audio Codec
Профиль формата : LC
Идентификатор кодека : A_AAC
Продолжительность : 1 ч. 27 м.
Битрейт : 76,0 Кбит/сек
Каналы : 2 канала
Расположение каналов : Front: L R
Частота : 48,0 КГц
Частота кадров : 46,875 кадров/сек (1024 SPF)
Метод сжатия : С потерями
Задержка видео : 9 мс.
Размер потока : 47,5 Мбайт (6%)
Язык : Russian
Default : Да
Forced : Нет

Текст #1
Идентификатор : 3
Формат : UTF-8
Идентификатор кодека : S_TEXT/UTF8
Идентификатор кодека/Информация : UTF-8 Plain Text
Продолжительность : 1 ч. 19 м.
Битрейт : 54 бит/сек
ElementCount : 522
Размер потока : 31,7 Кбайт (0%)
Заголовок : Русские
Язык : Russian
Default : Нет
Forced : Нет

Текст #2
Идентификатор : 4
Формат : UTF-8
Идентификатор кодека : S_TEXT/UTF8
Идентификатор кодека/Информация : UTF-8 Plain Text
Продолжительность : 1 ч. 20 м.
Битрейт : 33 бит/сек
ElementCount : 514
Размер потока : 19,6 Кбайт (0%)
Заголовок : Английские
Язык : English
Default : Нет
Forced : Нет

Меню
00:00:00.000 : :Chapter 01
00:04:20.885 : :Chapter 02
00:10:34.967 : :Chapter 03
00:14:21.652 : :Chapter 04
00:19:09.314 : :Chapter 05
00:24:47.110 : :Chapter 06
00:29:03.992 : :Chapter 07
00:35:08.564 : :Chapter 08
00:40:40.729 : :Chapter 09
00:45:47.202 : :Chapter 10
00:51:14.613 : :Chapter 11
00:56:55.161 : :Chapter 12
01:01:53.376 : :Chapter 13
01:04:39.750 : :Chapter 14
01:10:01.238 : :Chapter 15
01:13:56.849 : :Chapter 16



Скриншоты:
[+] Всего файлов в раздаче - 1:
Priest.2011.ExKinoRay.mkv746.43 MB

Отзывы
Зарегистрируйтесь чтобы добавить комментарий.
Обратная связь
Copyleft ©