↑↓Torrent.by
Поиск
Логин: Регистрация
Пароль: Восстановить пароль
Загрузка...

Не имей 100 рублей... (1959) SATRip-AVC от New-Team

Скачать ne-imey-100-rubley-1959-satrip-avc-ot-new-team.torrent
U Магнитная ссылка Размер: 1.09 GB Раздают: 74 Качают: 20 Добавлен: 2017-12-20 16:44:05
Не имей 100 рублей... (1959) SATRip-AVC от New-Team

Мы "В КОНТАКТЕ"

Страна: СССР
Производство: Ленфильм

Жанр:  комедия
Год выпуска: 1959
Продолжительность: 01:21:11

Перевод: Не требуется
Cубтитры: нет
Оригинальная аудиодорожка: русский

Режиссер: Геннадий Казанский

В ролях:
Александр Никитин, Павел Рудаков, Людмила Шагалова, Алина Немченко, Сергей Сибель, Виктор Харитонов, Евгений Леонов, Степан Крылов, Е. Арясов, Виктор Бриц, В. Прошкин, Аркадий Пышняк, Ю. Стеер...
Об актёрах подробней

Описание:
Иван Андреевич Бажанов, директор краеведческого музея, - человек очень увлечённый. Сорвался вдруг этот почтенный человек с места и отправился искать клад. Обладая богатой фантазией, Иван Андреевич нарисовал такую яркую и увлекательную картину поисков своему соседу, шофёру Гуляеву (Павел Рудаков), что тот не выдержал и, оставив своё многочисленное семейство, отправился в путешествие вместе с Бажановым.

[url=http://www.imdb.com/title/tt1446116/" target="_blank">


[+] MediaInfo

Общее
Полное имя                               : Ne.imey.100.rubley...1959.SATRip-AVC_[New-team]_by_AVP_Studio.mkv
Формат                                   : Matroska
Версия формата                           : Version 2
Размер файла                             : 1,09 Гбайт
Продолжительность                        : 1 ч. 21 м.
Общий поток                              : 1920 Кбит/сек
Дата кодирования                         : UTC 2017-12-18 12:44:38
Программа кодирования                    : mkvmerge v6.1.0 ('Old Devil') built on Mar  4 2013 09:10:42
Библиотека кодирования                   : libebml v1.3.0 + libmatroska v1.4.0

Видео
Идентификатор                            : 1
Формат                                   : AVC
Формат/Информация                        : Advanced Video Codec
Профиль формата                          : High@L4.1
Настройки формата                        : CABAC / 10 Ref Frames
Параметр CABAC формата                   : Да
Параметр RefFrames формата               : 10 кадров
Идентификатор кодека                     : V_MPEG4/ISO/AVC
Продолжительность                        : 1 ч. 21 м.
Битрейт                                  : 1726 Кбит/сек
Ширина                                   : 704 пикселя
Высота                                   : 570 пикселей
Соотношение сторон                       : 4:3
Режим частоты кадров                     : Постоянный
Частота кадров                           : 25,000 кадров/сек
Цветовое пространство                    : YUV
Субдискретизация насыщенности            : 4:2:0
Битовая глубина                          : 8 бит
Тип развёртки                            : Прогрессивная
Бит/(Пиксели*Кадры)                      : 0.172
Размер потока                            : 981 Мбайт (88%)
Библиотека кодирования                   : x264 core 130 r2273 b3065e6
Настройки программы                      : cabac=1 / ref=10 / deblock=1:-2:-1 / analyse=0x3:0x113 / me=umh / subme=10 / psy=1 / psy_rd=1.00:0.00 / mixed_ref=1 / me_range=32 / chroma_me=1 / trellis=2 / 8x8dct=1 / cqm=0 / deadzone=21,11 / fast_pskip=1 / chroma_qp_offset=-2 / threads=6 / lookahead_threads=1 / sliced_threads=0 / nr=0 / decimate=0 / interlaced=0 / bluray_compat=0 / constrained_intra=0 / bframes=8 / b_pyramid=2 / b_adapt=2 / b_bias=0 / direct=3 / weightb=1 / open_gop=0 / weightp=2 / keyint=250 / keyint_min=25 / scenecut=40 / intra_refresh=0 / rc=2pass / mbtree=0 / bitrate=1726 / ratetol=1.0 / qcomp=0.60 / qpmin=0 / qpmax=69 / qpstep=4 / cplxblur=20.0 / qblur=0.5 / ip_ratio=1.40 / pb_ratio=1.30 / aq=1:1.00
Default                                  : Да
Forced                                   : Нет

Аудио
Идентификатор                            : 2
Формат                                   : AC-3
Формат/Информация                        : Audio Coding 3
Идентификатор кодека                     : A_AC3
Продолжительность                        : 1 ч. 21 м.
Вид битрейта                             : Постоянный
Битрейт                                  : 192 Кбит/сек
Каналы                                   : 2 канала
Расположение каналов                     : Front: L R
Частота                                  : 48,0 КГц
Частота кадров                           : 31,250 кадров/сек (1536 SPF)
Битовая глубина                          : 16 бит
Метод сжатия                             : С потерями
Размер потока                            : 111 Мбайт (10%)
Default                                  : Да
Forced                                   : Нет
Statistics Tags Issue                    : mkvmerge v17.0.0 ('Be Ur Friend') 64-bit 2017-12-05 09:31:12 / mkvmerge v6.1.0 ('Old Devil') built on Mar  4 2013 09:10:42 2017-12-18 12:44:38
FromStats_BitRate                        : 192000
FromStats_Duration                       : 01:21:10.624000000
FromStats_FrameCount                     : 152207
FromStats_StreamSize                     : 116894976



Скриншоты:
[+] Всего файлов в раздаче - 1:
Ne.imey.100.rubley...1959.SATRip-AVC_[New-team]_by_AVP_Studio.mkv1.09 GB

Текущая раздача:
ДатаКомментарии    РазмерПиры
2017-12-20 U Не имей 100 рублей... (1959) SATRip-AVC от New-Team 1.09 GB ↑ 74 ↓ 20

Похожие раздачи по запросу - имей:
2017-12-20 U Не имей 100 рублей... (1959) SATRip от New-Team 1.09 GB ↑ 82 ↓ 21

Отзывы
Зарегистрируйтесь чтобы добавить комментарий.
Обратная связь
Copyleft ©