↑↓Torrent.by
Поиск
Логин: Регистрация
Пароль: Восстановить пароль
Загрузка...

Не имей 100 рублей... (1959) SATRip от New-Team

Скачать ne-imey-100-rubley-1959-satrip-ot-new-team.torrent
U Магнитная ссылка Размер: 1.09 GB Раздают: 178 Качают: 25 Добавлен: 2017-12-20 18:37:04
Не имей 100 рублей... (1959) SATRip от New-Team

Мы "В КОНТАКТЕ"

Страна: СССР
Производство: Ленфильм

Жанр:  комедия
Год выпуска: 1959
Продолжительность: 01:21:11

Перевод: Не требуется
Cубтитры: нет
Оригинальная аудиодорожка: русский

Режиссер: Геннадий Казанский

В ролях:
Александр Никитин, Павел Рудаков, Людмила Шагалова, Алина Немченко, Сергей Сибель, Виктор Харитонов, Евгений Леонов, Степан Крылов, Е. Арясов, Виктор Бриц, В. Прошкин, Аркадий Пышняк, Ю. Стеер...
Об актёрах подробней

Описание:
Иван Андреевич Бажанов, директор краеведческого музея, - человек очень увлечённый. Сорвался вдруг этот почтенный человек с места и отправился искать клад. Обладая богатой фантазией, Иван Андреевич нарисовал такую яркую и увлекательную картину поисков своему соседу, шофёру Гуляеву (Павел Рудаков), что тот не выдержал и, оставив своё многочисленное семейство, отправился в путешествие вместе с Бажановым.

[url=http://www.imdb.com/title/tt1446116/" target="_blank">


[+] MediaInfo

Общее
Полное имя                               : Ne.imey.100.rubley...1959.SATRip_[New-team]_by_AVP_Studio.avi
Формат                                   : AVI
Формат/Информация                        : Audio Video Interleave
Размер файла                             : 1,09 Гбайт
Продолжительность                        : 1 ч. 21 м.
Общий поток                              : 1923 Кбит/сек
Программа кодирования                    : VirtualDubMod 1.5.10.3 | www.virtualdub-fr.org || (build 2550/release)
Библиотека кодирования                   : VirtualDubMod build 2550/release

Видео
Идентификатор                            : 0
Формат                                   : MPEG-4 Visual
Профиль формата                          : Advanced Simple@L5
Настройки формата                        : BVOP1 / Custom Matrix
Параметр BVOP формата                    : 1
Параметр QPel формата                    : Нет
Параметр GMC формата                     : Без точки перехода
Параметр матрицы формата                 : Выборочная
Идентификатор кодека                     : XVID
Идентификатор кодека/Подсказка           : XviD
Продолжительность                        : 1 ч. 21 м.
Битрейт                                  : 1721 Кбит/сек
Ширина                                   : 704 пикселя
Высота                                   : 528 пикселей
Соотношение сторон                       : 4:3
Частота кадров                           : 25,000 кадров/сек
Цветовое пространство                    : YUV
Субдискретизация насыщенности            : 4:2:0
Битовая глубина                          : 8 бит
Тип развёртки                            : Прогрессивная
Метод сжатия                             : С потерями
Бит/(Пиксели*Кадры)                      : 0.185
Размер потока                            : 999 Мбайт (90%)
Библиотека кодирования                   : XviD 73

Аудио
Идентификатор                            : 1
Формат                                   : AC-3
Формат/Информация                        : Audio Coding 3
Идентификатор кодека                     : 2000
Продолжительность                        : 1 ч. 21 м.
Вид битрейта                             : Постоянный
Битрейт                                  : 192 Кбит/сек
Каналы                                   : 2 канала
Расположение каналов                     : Front: L R
Частота                                  : 48,0 КГц
Частота кадров                           : 31,250 кадров/сек (1536 SPF)
Битовая глубина                          : 16 бит
Метод сжатия                             : С потерями
Размер потока                            : 111 Мбайт (10%)
Выравнивание                             : Разделение по промежуткам
Продолжительность промежутка             : 40  мс. (1,00 видеокадр)
Время предзагрузки промежутка            : 500  мс



Скриншоты:
[+] Всего файлов в раздаче - 1:
Ne.imey.100.rubley...1959.SATRip_[New-team]_by_AVP_Studio.avi1.09 GB

Текущая раздача:
ДатаКомментарии    РазмерПиры
2017-12-20 U Не имей 100 рублей... (1959) SATRip от New-Team 1.09 GB ↑ 178 ↓ 25

Похожие раздачи по запросу - имей:
2017-12-20 U Не имей 100 рублей... (1959) SATRip-AVC от New-Team 1.09 GB ↑ 74 ↓ 20

Отзывы
Зарегистрируйтесь чтобы добавить комментарий.
Обратная связь
Copyleft ©