↑↓Torrent.by
Поиск
Логин: Регистрация
Пароль: Восстановить пароль
Загрузка...

Криминальный квартет (1989) WEBRip 720p от KORSAR

Скачать kriminalnyy-kvartet-1989-webrip-720p-ot-korsar.torrent
U Магнитная ссылка Размер: 3.75 GB Раздают: 79 Качают: 50 Добавлен: 2017-12-20 18:37:21
Криминальный квартет (1989) WEBRip 720p от KORSAR

Криминальный квартет

Год выхода: 1989
Жанр:  боевик, криминал

Режиссер: Александр Муратов
В ролях: Николай Караченцов, Владимир Стеклов, Борис Щербаков, Владимир Еремин, Неле Савиченко-Климене, Иван Мурадханов, Вадим Спиридонов, Игорь Ясулович, Семен Фарада, Вадим Яковлев, Борис Клюев, Алексей Шейнин, Юрий Катин-Ярцев, Юрий Гусев, Софья Горшкова, Лев Прыгунов, Олег Анофриев, Юрий Назаров, Сергей Лосев, Валентина Березуцкая, Даниил Нетребин, Виктор Филиппов, Михаил Чигарев, Галина Казакова, Галина Самойлова-Ледогорова, Григорий Маликов, Юрий Доронин, Герман Полосков, Гурген Тонунц, Георгиос Совчис, Дмитрий Матвеев, Александр Кузьмичев, Владимир Козелков, Владимир Трещалов

О фильме: Следователь обнаруживает на торговой базе крупную партию бракованной обуви и заводит по этому поводу дело. Внезапно у него пропадает сын. Вскоре раздается звонок. Похитители требуют, чтобы он закрыл дело, если хочет увидеть своего сына живым…Герой рассказывает об этом своим друзьям, двум оперативникам и журналисту. Они дружат еще с детского дома и готовы ради товарища пойти на все! Четверо бесстрашных мужчин бросают вызов мафии...

Страна: СССР
Продолжительность: 01:24:22
Язык: Русский

Формат: MKV
Качество: WEBRip 720p
Видео: MPEG-4 AVC, 960х720, 25 fps, 5558 kbps
Аудио: Звук: AC3, 6 ch, 448 Кбит/с, AC3, 1 ch, 224 Кбит/с


[+] Инфо файл

x264 [info]: frame I:692   Avg QP:18.36  size:123867
x264 [info]: frame P:28410 Avg QP:19.96  size: 65531
x264 [info]: frame B:97462 Avg QP:22.36  size: 16918
x264 [info]: consecutive B-frames:  1.1%  1.4%  4.8% 42.7% 19.3% 28.6%  1.5%  0.4%  0.1%  0.0%

Общее
Уникальный идентификатор                 : 233738868253122038826277136629088765608 (0xAFD877F320BCEBFCAA252D69E17DC6A8)
Полное имя                               : D:Криминальный квартет_1989-WEBRip 720p_KORSAR.mkv
Формат                                   : Matroska
Версия формата                           : Version 2
Размер файла                             : 3,75 Гбайт
Продолжительность                        : 1 ч. 24 м.
Общий поток                              : 6357 Кбит/сек
Название фильма                          : Криминальный квартет_1989-WEBRip 720p_KORSAR
Дата кодирования                         : UTC 2017-12-20 07:17:08
Программа кодирования                    : mkvmerge v5.8.0 ('No Sleep / Pillow') built on Sep  2 2012 15:37:04
Библиотека кодирования                   : libebml v1.2.3 + libmatroska v1.3.0

Видео
Идентификатор                            : 1
Формат                                   : AVC
Формат/Информация                        : Advanced Video Codec
Профиль формата                          : High@L4.1
Параметр CABAC формата                   : Да
Параметр RefFrames формата               : 12 кадров
Идентификатор кодека                     : V_MPEG4/ISO/AVC
Продолжительность                        : 1 ч. 24 м.
Битрейт                                  : 5558 Кбит/сек
Ширина                                   : 960 пикселей
Высота                                   : 720 пикселей
Соотношение сторон                       : 4:3
Режим частоты кадров                     : Постоянный
Частота кадров                           : 25,000 кадров/сек
Цветовое пространство                    : YUV
Субдискретизация насыщенности            : 4:2:0
Битовая глубина                          : 8 бит
Тип развёртки                            : Прогрессивная
Бит/(Пиксели*Кадры)                      : 0.322
Размер потока                            : 3,28 Гбайт (87%)
Библиотека кодирования                   : x264 core 148 r2744kMod b97ae06
Настройки программы                      : cabac=1 / ref=12 / deblock=1:-2:-1 / analyse=0x3:0x113 / me=umh / subme=10 / psy=1 / fade_compensate=0.00 / psy_rd=1.00:0.00 / mixed_ref=1 / me_range=40 / chroma_me=1 / trellis=2 / 8x8dct=1 / cqm=0 / deadzone=21,11 / fast_pskip=1 / chroma_qp_offset=-2 / threads=12 / lookahead_threads=2 / sliced_threads=0 / nr=0 / decimate=1 / interlaced=0 / bluray_compat=0 / constrained_intra=0 / bframes=9 / b_pyramid=2 / b_adapt=2 / b_bias=0 / direct=1 / weightb=1 / open_gop=0 / weightp=2 / keyint=250 / keyint_min=25 / scenecut=40 / intra_refresh=0 / rc=crf / mbtree=0 / crf=17.8000 / qcomp=0.60 / qpmin=0 / qpmax=39 / qpstep=4 / ip_ratio=1.40 / pb_ratio=1.30 / aq=2:0.80
Язык                                     : English
Default                                  : Да
Forced                                   : Нет
Цветовой диапазон                        : Limited
Основные цвета                           : BT.709
Характеристики трансфера                 : BT.709
Коэффициенты матрицы                     : BT.709

Аудио #1
Идентификатор                            : 2
Формат                                   : AC-3
Формат/Информация                        : Audio Coding 3
Параметр Endianness формата              : Big
Идентификатор кодека                     : A_AC3
Продолжительность                        : 1 ч. 24 м.
Вид битрейта                             : Постоянный
Битрейт                                  : 448 Кбит/сек
Каналы                                   : 6 каналов
Расположение каналов                     : Front: L C R, Side: L R, LFE
Частота                                  : 48,0 КГц
Частота кадров                           : 31,250 кадров/сек (1536 SPF)
Битовая глубина                          : 16 бит
Метод сжатия                             : С потерями
Размер потока                            : 270 Мбайт (7%)
Язык                                     : Russian
Default                                  : Да
Forced                                   : Нет

Аудио #2
Идентификатор                            : 3
Формат                                   : AC-3
Формат/Информация                        : Audio Coding 3
Параметр Endianness формата              : Big
Идентификатор кодека                     : A_AC3
Продолжительность                        : 1 ч. 24 м.
Вид битрейта                             : Постоянный
Битрейт                                  : 224 Кбит/сек
Каналы                                   : 1 канал
Расположение каналов                     : Front: C
Частота                                  : 48,0 КГц
Частота кадров                           : 31,250 кадров/сек (1536 SPF)
Битовая глубина                          : 16 бит
Метод сжатия                             : С потерями
Размер потока                            : 135 Мбайт (4%)
Язык                                     : Russian
Default                                  : Нет
Forced                                   : Нет

Меню
00:00:00.000                             : en:Chapter 1
00:10:56.320                             : en:Chapter 2
00:17:00.360                             : en:Chapter 3
00:21:53.840                             : en:Chapter 4
00:31:18.600                             : en:Chapter 5
00:40:01.600                             : en:Chapter 6
00:51:01.480                             : en:Chapter 7
01:00:39.880                             : en:Chapter 8
01:11:47.720                             : en:Chapter 9
01:24:22.080                             : en:Chapter 10




Скриншоты:
[+] Всего файлов в раздаче - 1:
Криминальный квартет_1989-WEBRip 720p_KORSAR.mkv3.75 GB

Текущая раздача:
ДатаКомментарии    РазмерПиры
2017-12-20 U Криминальный квартет (1989) WEBRip 720p от KORSAR 3.75 GB ↑ 79 ↓ 50

Похожие раздачи по запросу - криминальный:
2018-01-25 U Криминальный город / The Outlaws / Beomjoi dosi (2017) WEB-DLRip | L 1К1.45 GB ↑ 322 ↓ 117
2018-01-25 U Криминальный город / The Outlaws / Beomjoi dosi (2017) WEB-DLRip 720p | L 4.53 GB ↑ 102 ↓ 59
2013-10-30 U Ильин Андрей - Криминальный отдел (2013) MP3 203.05 MB ↑ 279 ↓ 1

Отзывы
Зарегистрируйтесь чтобы добавить комментарий.
Обратная связь
Copyleft ©