↑↓Torrent.by
Поиск
Логин: Регистрация
Пароль: Восстановить пароль
Загрузка...

Армавир (1991) DVDRip-AVC от KORSAR

Скачать armavir-1991-dvdrip-avc-ot-korsar.torrent
U Магнитная ссылка Размер: 2.46 GB Раздают: 46 Качают: 18 Добавлен: 2017-12-21 11:26:50
Армавир (1991) DVDRip-AVC от KORSAR

Армавир

Выпущено: СССР, Мосфильм, АРК-Фильм
Жанр:  Драма
Год выпуска: 1991
Продолжительность: 02:13:21
Перевод: Не требуется

Режиссер: Вадим Абдрашитов
В ролях: Сергей Колтаков, Сергей Шакуров, Елена Шевченко, Сергей Гармаш,
Мария Строганова, Пётр Зайченко, Рим Аюпов, Жан Байжанбаев, Наталья Потапова,
Александр Вдовин, Валентина Светлова (II), Татьяна Егорова, Алексей Весёлкин ст.,
Сергей Гирин, Елена Дробышева

О Фильме: После крушения корабля Марину разыскивают двое: ее возлюбленный, которого она уже не любит,
и ее отец, которого она давно не видела и ничего не знает о нем... Оба они по-прежнему любят её.

Кодек: х264
Качество: DVDRip-AVC
Видео: MPEG-4 AVC, 716x572@763x572, 25 fps, 2200 Кбит/с
Аудио 1: AC3, 2 ch, 224 Кбит/с
Аудио 2: AC3, 1 ch, 224 Кбит/с


[+] Инфо файл

x264 [info]: frame I:1036  Avg QP:15.02  size: 88585
x264 [info]: frame P:41896 Avg QP:18.93  size: 28992
x264 [info]: frame B:156243 Avg QP:20.32  size:  5660

Общее
Уникальный идентификатор                 : 205568836010453343067014396273641508228 (0x9AA71E20F78BB0ABBCB9BC4FB509CD84)
Полное имя                               : E:Мои рипыАрмавир 1991_DVDRip-AVC_KORSAR.mkv
Формат                                   : Matroska
Версия формата                           : Version 2
Размер файла                             : 2,46 Гбайт
Продолжительность                        : 2 ч. 12 м.
Общий поток                              : 2650 Кбит/сек
Дата кодирования                         : UTC 2017-12-17 10:23:02
Программа кодирования                    : mkvmerge v5.8.0 ('No Sleep / Pillow') built on Sep  2 2012 15:37:04
Библиотека кодирования                   : libebml v1.2.3 + libmatroska v1.3.0

Видео
Идентификатор                            : 1
Формат                                   : AVC
Формат/Информация                        : Advanced Video Codec
Профиль формата                          : High@L4.1
Настройки формата                        : CABAC / 15 Ref Frames
Параметр CABAC формата                   : Да
Параметр RefFrames формата               : 15 кадров
Идентификатор кодека                     : V_MPEG4/ISO/AVC
Продолжительность                        : 2 ч. 12 м.
Битрейт                                  : 2200 Кбит/сек
Ширина                                   : 716 пикселей
Высота                                   : 572 пикселя
Соотношение сторон                       : 4:3
Соотношение сторон в оригинале           : 4:3
Режим частоты кадров                     : Постоянный
Частота кадров                           : 25,000 кадров/сек
Цветовое пространство                    : YUV
Субдискретизация насыщенности            : 4:2:0
Битовая глубина                          : 8 бит
Тип развёртки                            : Прогрессивная
Бит/(Пиксели*Кадры)                      : 0.215
Размер потока                            : 1,99 Гбайт (81%)
Библиотека кодирования                   : x264 core 152 r2851kMod ba24899
Настройки программы                      : cabac=1 / ref=15 / deblock=1:-2:-1 / analyse=0x3:0x133 / me=umh / subme=11 / psy=1 / fade_compensate=0.00 / psy_rd=1.05:0.10 / mixed_ref=1 / me_range=48 / chroma_me=1 / trellis=2 / 8x8dct=1 / cqm=0 / deadzone=21,11 / fast_pskip=0 / chroma_qp_offset=-3 / threads=12 / lookahead_threads=3 / sliced_threads=0 / nr=0 / decimate=0 / interlaced=0 / bluray_compat=0 / constrained_intra=0 / bframes=10 / b_pyramid=2 / b_adapt=2 / b_bias=0 / direct=3 / weightb=1 / open_gop=0 / weightp=2 / keyint=250 / keyint_min=25 / scenecut=40 / intra_refresh=0 / rc_lookahead=40 / rc=2pass / mbtree=0 / bitrate=2200 / ratetol=1.0 / qcomp=0.60 / qpmin=0 / qpmax=39 / qpstep=4 / cplxblur=20.0 / qblur=0.5 / vbv_maxrate=50000 / vbv_bufsize=62500 / nal_hrd=none / filler=0 / ip_ratio=1.40 / pb_ratio=1.30 / aq=1:1.00
Язык                                     : English
Default                                  : Да
Forced                                   : Нет
Цветовой диапазон                        : Limited
Основные цвета                           : BT.601 PAL
Характеристики трансфера                 : BT.470 System B, BT.470 System G
Коэффициенты матрицы                     : BT.470 System B, BT.470 System G

Аудио #1
Идентификатор                            : 2
Формат                                   : AC-3
Формат/Информация                        : Audio Coding 3
Параметр Endianness формата              : Big
Идентификатор кодека                     : A_AC3
Продолжительность                        : 2 ч. 12 м.
Вид битрейта                             : Постоянный
Битрейт                                  : 224 Кбит/сек
Каналы                                   : 2 канала
Расположение каналов                     : Front: L R
Частота                                  : 48,0 КГц
Частота кадров                           : 31,250 кадров/сек (1536 SPF)
Битовая глубина                          : 16 бит
Метод сжатия                             : С потерями
Размер потока                            : 213 Мбайт (8%)
Язык                                     : Russian
Default                                  : Да
Forced                                   : Нет

Аудио #2
Идентификатор                            : 3
Формат                                   : AC-3
Формат/Информация                        : Audio Coding 3
Параметр Endianness формата              : Big
Идентификатор кодека                     : A_AC3
Продолжительность                        : 2 ч. 12 м.
Вид битрейта                             : Постоянный
Битрейт                                  : 224 Кбит/сек
Каналы                                   : 1 канал
Расположение каналов                     : Front: C
Частота                                  : 48,0 КГц
Частота кадров                           : 31,250 кадров/сек (1536 SPF)
Битовая глубина                          : 16 бит
Метод сжатия                             : С потерями
Размер потока                            : 213 Мбайт (8%)
Язык                                     : Russian
Default                                  : Нет
Forced                                   : Нет




Скриншоты:
[+] Всего файлов в раздаче - 1:
Армавир 1991_DVDRip-AVC_KORSAR.mkv2.46 GB

Отзывы
Зарегистрируйтесь чтобы добавить комментарий.
Обратная связь
Copyleft ©