↑↓Torrent.by
Поиск
Логин: Регистрация
Пароль: Восстановить пароль
Загрузка...

Республика ШКИД (1966) WEB-DLRip 720p от KORSAR

Скачать respublika-shkid-1966-web-dlrip-720p-ot-korsar.torrent
U Магнитная ссылка Размер: 3.68 GB Раздают: 149 Качают: 72 Добавлен: 2017-12-21 21:24:07
Республика ШКИД (1966) WEB-DLRip 720p от KORSAR

Республика ШКИД

Год выпуска: 1966
Жанр:  Драма, комедия, семейный, экранизация
Выпущено: СССР, Ленфильм

Режиссер: Геннадий Полока
В ролях: Сергей Юрский, Юлия Бурыгина, Павел Луспекаев, Александр Мельников, Анатолий Столбов, Георгий Колосов, Вера Титова, Лев Вайнштейн, Виктор Перевалов, Александр Кавалеров, Николай Годовиков, Вячеслав Голубков, Владимир Колесников, Александр Липов, Анатолий Подшивалов, Юрий Рычков, Игорь Санников, Евгения Ветлова, Михаил Васильев, Александр Товстоногов, Виолетта Жухимович, Артур Исаев, Алексей Догадаев, Вячеслав Романов, Людмила Волынская, Владимир Максимов

О фильме: Экранизация одноименной повести Г.Белых и Л.Пантелеева, давно и прочно вошедшей в "Золотой фонд" детской литературы. Республикой ШКИД назвали свою Школу Имени Достоевского свободолюбивые воспитанники — бывшие беспризорники. Обезоруживающее доверие педагогов научило ребят достоинству, помогло не раствориться в беге смутного времени…

Качество: WEB-DLRip 720p
Видео: MPEG-4 AVC, 1280x552, 25 fps, 5128 Кбит/с
Аудио: AC3, 2 ch, 192 Кбит/с
Продолжительность: 01:37:10
Язык: Русский
Cубтитры: Русские


[+] Инфо файл

x264 [info]: frame I:833   Avg QP:18.98  size:103834
x264 [info]: frame P:36893 Avg QP:20.22  size: 60021
x264 [info]: frame B:108043 Avg QP:22.15  size: 14015
x264 [info]: consecutive B-frames:  2.4%  4.8%  8.3% 43.4% 18.7% 21.9%  0.5%  0.1%  0.0%  0.0%

Общее
Уникальный идентификатор                 : 236347581343396855862664923557393855127 (0xB1CEE36F72118BF8ABE2A85D2857F297)
Полное имя                               : D:Республика ШКИД_1966-WEB-DLRip 720p_KORSAR.mkv
Формат                                   : Matroska
Версия формата                           : Version 2
Размер файла                             : 3,68 Гбайт
Продолжительность                        : 1 ч. 37 м.
Общий поток                              : 5428 Кбит/сек
Название фильма                          : Республика ШКИД_1966-WEB-DLRip 720p_KORSAR
Дата кодирования                         : UTC 2017-10-07 19:46:50
Программа кодирования                    : mkvmerge v5.8.0 ('No Sleep / Pillow') built on Sep  2 2012 15:37:04
Библиотека кодирования                   : libebml v1.2.3 + libmatroska v1.3.0

Видео
Идентификатор                            : 1
Формат                                   : AVC
Формат/Информация                        : Advanced Video Codec
Профиль формата                          : High@L4.1
Параметр CABAC формата                   : Да
Параметр RefFrames формата               : 11 кадров
Идентификатор кодека                     : V_MPEG4/ISO/AVC
Продолжительность                        : 1 ч. 37 м.
Битрейт                                  : 5128 Кбит/сек
Ширина                                   : 1280 пикселей
Высота                                   : 552 пикселя
Соотношение сторон                       : 2,35:1
Режим частоты кадров                     : Постоянный
Частота кадров                           : 25,000 кадров/сек
Цветовое пространство                    : YUV
Субдискретизация насыщенности            : 4:2:0
Битовая глубина                          : 8 бит
Тип развёртки                            : Прогрессивная
Бит/(Пиксели*Кадры)                      : 0.290
Размер потока                            : 3,48 Гбайт (94%)
Библиотека кодирования                   : x264 core 148 r2744kMod b97ae06
Настройки программы                      : cabac=1 / ref=11 / deblock=1:-2:-1 / analyse=0x3:0x113 / me=umh / subme=10 / psy=1 / fade_compensate=0.00 / psy_rd=1.05:0.00 / mixed_ref=1 / me_range=36 / chroma_me=1 / trellis=2 / 8x8dct=1 / cqm=0 / deadzone=21,11 / fast_pskip=1 / chroma_qp_offset=-2 / threads=12 / lookahead_threads=2 / sliced_threads=0 / nr=0 / decimate=1 / interlaced=0 / bluray_compat=0 / constrained_intra=0 / bframes=9 / b_pyramid=2 / b_adapt=2 / b_bias=0 / direct=1 / weightb=1 / open_gop=0 / weightp=2 / keyint=250 / keyint_min=25 / scenecut=40 / intra_refresh=0 / rc=crf / mbtree=0 / crf=17.5000 / qcomp=0.63 / qpmin=0 / qpmax=39 / qpstep=4 / ip_ratio=1.40 / pb_ratio=1.30 / aq=2:0.80
Язык                                     : English
Default                                  : Да
Forced                                   : Нет
Цветовой диапазон                        : Limited
Основные цвета                           : BT.709
Характеристики трансфера                 : BT.709
Коэффициенты матрицы                     : BT.709

Аудио
Идентификатор                            : 2
Формат                                   : AC-3
Формат/Информация                        : Audio Coding 3
Параметр Endianness формата              : Big
Идентификатор кодека                     : A_AC3
Продолжительность                        : 1 ч. 37 м.
Вид битрейта                             : Постоянный
Битрейт                                  : 192 Кбит/сек
Каналы                                   : 2 канала
Расположение каналов                     : Front: L R
Частота                                  : 48,0 КГц
Частота кадров                           : 31,250 кадров/сек (1536 SPF)
Битовая глубина                          : 16 бит
Метод сжатия                             : С потерями
Размер потока                            : 133 Мбайт (4%)
Язык                                     : Russian
Default                                  : Да
Forced                                   : Нет

Текст
Идентификатор                            : 3
Формат                                   : UTF-8
Идентификатор кодека                     : S_TEXT/UTF8
Идентификатор кодека/Информация          : UTF-8 Plain Text
Язык                                     : Russian
Default                                  : Нет
Forced                                   : Нет

Меню
00:00:00.000                             : :Chapter 1
00:02:53.840                             : :Chapter 2
00:08:06.840                             : :Chapter 3
00:14:39.400                             : :Chapter 4
00:19:41.680                             : :Chapter 5
00:24:34.200                             : :Chapter 6
00:28:42.360                             : :Chapter 7
00:32:24.480                             : :Chapter 8
00:39:46.840                             : :Chapter 9
00:47:23.320                             : :Chapter 10
00:53:17.280                             : :Chapter 11
01:07:28.600                             : :Chapter 12
01:20:02.320                             : :Chapter 13
01:25:11.440                             : :Chapter 14
01:29:31.720                             : :Chapter 15
01:32:49.000                             : :Chapter 16




Скриншоты:
[+] Всего файлов в раздаче - 1:
Республика ШКИД_1966-WEB-DLRip 720p_KORSAR.mkv3.68 GB

Текущая раздача:
ДатаКомментарии    РазмерПиры
2017-12-21 U Республика ШКИД (1966) WEB-DLRip 720p от KORSAR 2 К 3.68 GB ↑ 149 ↓ 72

Похожие раздачи по запросу - республика:
2015-12-10 U Республика ШКИД (1966) DVDRip-AVC от ExKinoRay 1К1.49 GB ↑ 299 ↓ 36
2014-03-27 U Республика ШКИД (1966) DVDRip 744.01 MB ↑ 29 ↓ 15

Отзывы
Jordan
Просто праздник какой-то) Спасибо!

ser1985
Отличный фильм,и отличный релиз!
...не ропщу на свою незавидную долю...Гони должок! (из фильма)

Зарегистрируйтесь чтобы добавить комментарий.
Обратная связь
Copyleft ©