↑↓Torrent.by
Поиск
Логин: Регистрация
Пароль: Восстановить пароль
Загрузка...

Оно / It (2017) BDRip-HEVC 1080p от ХиМиК | D, A | iTunes

Скачать ono-it-2017-bdrip-hevc-1080p-ot-himik-d-a-itunes.torrent
U Магнитная ссылка Размер: 4.16 GB Раздают: 510 Качают: 100 Добавлен: 2017-12-22 00:48:55
Оно / It (2017) BDRip-HEVC 1080p от ХиМиК | D, A | iTunes

Название: Оно
Оригинальное название: It
Год выхода: 2017
Жанр: Ужасы, драма
Режиссер: Андрес Мускетти
В ролях: Джейден Либерер, Джереми Рэй Тейлор, София Лиллис, Финн Вулфард, Чоузен Джейкобс, Джек Грейзер, Уайатт Олефф, Билл Скарсгард, Николас Хэмилтон, Джейк Сим, Логан Томпсон, Оуэн Тиг, Джексон Роберт Скотт, Стивен Богерт, Стюарт Хьюз

О фильме:
События разворачиваются в небольшой американской провинции. Жители городка Дерри обеспокоены, причиной тому – массовые исчезновения детей и жестокие убийства. Выясняется, что это дело рук озлобленного клоуна, который уже не одно столетие терроризирует город. В эпицентре происходящего оказывается группа подростков, которые вынуждены не только встретиться со своим страхом лицом к лицу, но и противостоять ему…

Страна: США
Студия: New Line Cinema, KatzSmith Productions, Lin Pictures, RatPac-Dune Entertainment, Vertigo Entertainment
Продолжительность: 02:14:42
Перевод: Дублированный (iTunes), Авторский одноголосый

Файл
Кодек: HEVC x265 10 bit
Качество: BDRip-HEVC 1080p
Видео: 1920x800 (2.40:1), 3393 Кбит/сек, 0.092 бит/(Пиксели*Кадры), 23,976 кадр/сек (24000/1001), HEVC (Main10@L.4.1@High) 10 бит
Звук:
Русская, AC3, 384 Кбит/сек, Front: L C R, Side: L R, LFE, 48,0 КГц (Дубляж iTunes)
Русская, AC3, 192 Кбит/сек, Front: L R, 48,0 КГц (AVO Чадов)
Английская, AC3, 448 Кбит/сек, Front: L C R, Side: L R, LFE, 48,0 КГц (Оригинал)
Субтитры: Русские (форсированные, полные), английские
Разделение по главам: есть

Семпл

Релиз от: от XuMuK


[+] MediaInfo

Общее
Уникальный идентификатор                 : 190969576786803471560533300469535674670 (0x8FAB67136B5C8CD6ADF48828AB59112E)
Полное имя                               : H:HEVC 210 BITIt_2017_BDRip_1080p_[HEVC]_10bit.mkv
Формат                                   : Matroska
Версия формата                           : Version 4 / Version 2
Размер файла                             : 4,16 Гбайт
Продолжительность                        : 2 ч. 14 м.
Общий поток                              : 4416 Кбит/сек
Дата кодирования                         : UTC 2017-12-21 18:09:30
Программа кодирования                    : mkvmerge v18.0.0 ('Apricity') 64-bit
Библиотека кодирования                   : libebml v1.3.5 + libmatroska v1.4.8
Обложка                                  : Yes
Attachments                              : cover.png

Видео
Идентификатор                            : 1
Формат                                   : HEVC
Формат/Информация                        : High Efficiency Video Coding
Профиль формата                          : Main 10@L4.1@High
Идентификатор кодека                     : V_MPEGH/ISO/HEVC
Продолжительность                        : 2 ч. 14 м.
Битрейт                                  : 3393 Кбит/сек
Ширина                                   : 1920 пикселей
Высота                                   : 800 пикселей
Соотношение сторон                       : 2,40:1
Режим частоты кадров                     : Постоянный
Частота кадров                           : 23,976 (24000/1001) кадра/сек
Цветовое пространство                    : YUV
Субдискретизация насыщенности            : 4:2:0
Битовая глубина                          : 10 бит
Бит/(Пиксели*Кадры)                      : 0.092
Размер потока                            : 3,19 Гбайт (77%)
Библиотека кодирования                   : x265 2.5+20-0967d0add97e:[Windows][GCC 7.2.0][64 bit] 10bit
Настройки программы                      : cpuid=1173503 / frame-threads=4 / numa-pools=16 / wpp / no-pmode / no-pme / no-psnr / no-ssim / log-level=2 / input-csp=1 / input-res=1920x800 / interlace=0 / total-frames=0 / level-idc=41 / high-tier=1 / uhd-bd=0 / ref=5 / no-allow-non-conformance / no-repeat-headers / annexb / no-aud / no-hrd / info / hash=0 / no-temporal-layers / open-gop / min-keyint=23 / keyint=240 / bframes=6 / b-adapt=2 / no-b-pyramid / bframe-bias=0 / rc-lookahead=40 / lookahead-slices=4 / scenecut=40 / no-intra-refresh / ctu=64 / min-cu-size=8 / rect / no-amp / max-tu-size=32 / tu-inter-depth=4 / tu-intra-depth=4 / limit-tu=1 / rdoq-level=2 / dynamic-rd=0.00 / no-ssim-rd / signhide / no-tskip / nr-intra=0 / nr-inter=0 / no-constrained-intra / no-strong-intra-smoothing / max-merge=3 / limit-refs=3 / limit-modes / me=3 / subme=7 / merange=57 / temporal-mvp / weightp / weightb / no-analyze-src-pics / no-deblock / sao / no-sao-non-deblock / rd=4 / no-early-skip / no-rskip / no-fast-intra / no-tskip-fast / no-cu-lossless / no-b-intra / no-splitrd-skip / rdpenalty=0 / psy-rd=2.00 / psy-rdoq=1.00 / no-rd-refine / analysis-reuse-mode=0 / no-lossless / cbqpoffs=0 / crqpoffs=0 / rc=crf / crf=18.5 / qcomp=0.60 / qpstep=4 / stats-write=0 / stats-read=0 / vbv-maxrate=50000 / vbv-bufsize=50000 / vbv-init=0.9 / crf-max=0.0 / crf-min=0.0 / ipratio=1.40 / pbratio=1.30 / aq-mode=1 / aq-strength=0.50 / cutree / zone-count=1 / zones: / start-frame=185431 / end-frame=193784 / qp=35 / no-strict-cbr / qg-size=32 / no-rc-grain / qpmax=69 / qpmin=0 / no-const-vbv / sar=1 / overscan=0 / videoformat=5 / range=0 / colorprim=2 / transfer=2 / colormatrix=1 / chromaloc=0 / display-window=0 / max-cll=0,0 / min-luma=0 / max-luma=1023 / log2-max-poc-lsb=8 / vui-timing-info / vui-hrd-info / slices=1 / opt-qp-pps / opt-ref-list-length-pps / no-multi-pass-opt-rps / scenecut-bias=0.05 / no-opt-cu-delta-qp / no-aq-motion / no-hdr / no-hdr-opt / no-dhdr10-opt / analysis-reuse-level=5 / scale-factor=0 / refine-intra=0 / refine-inter=0 / refine-mv=0 / no-limit-sao / ctu-info=0
Язык                                     : English
Default                                  : Да
Forced                                   : Да
Цветовой диапазон                        : Limited
Коэффициенты матрицы                     : BT.709

Аудио #1
Идентификатор                            : 2
Формат                                   : AC-3
Формат/Информация                        : Audio Coding 3
Идентификатор кодека                     : A_AC3
Продолжительность                        : 2 ч. 14 м.
Вид битрейта                             : Постоянный
Битрейт                                  : 384 Кбит/сек
Каналы                                   : 6 каналов
Расположение каналов                     : Front: L C R, Side: L R, LFE
Частота                                  : 48,0 КГц
Частота кадров                           : 31,250 кадров/сек (1536 SPF)
Битовая глубина                          : 16 бит
Метод сжатия                             : С потерями
Размер потока                            : 370 Мбайт (9%)
Заголовок                                : iTunes
Язык                                     : Russian
ServiceKind                              : Complete Main
Default                                  : Да
Forced                                   : Нет

Аудио #2
Идентификатор                            : 3
Формат                                   : AC-3
Формат/Информация                        : Audio Coding 3
Идентификатор кодека                     : A_AC3
Продолжительность                        : 2 ч. 12 м.
Вид битрейта                             : Постоянный
Битрейт                                  : 192 Кбит/сек
Каналы                                   : 2 канала
Расположение каналов                     : Front: L R
Частота                                  : 48,0 КГц
Частота кадров                           : 31,250 кадров/сек (1536 SPF)
Битовая глубина                          : 16 бит
Метод сжатия                             : С потерями
Размер потока                            : 182 Мбайт (4%)
Заголовок                                : AVO Чадов
Язык                                     : Russian
ServiceKind                              : Complete Main
Default                                  : Нет
Forced                                   : Нет

Аудио #3
Идентификатор                            : 4
Формат                                   : AC-3
Формат/Информация                        : Audio Coding 3
Идентификатор кодека                     : A_AC3
Продолжительность                        : 2 ч. 14 м.
Вид битрейта                             : Постоянный
Битрейт                                  : 448 Кбит/сек
Каналы                                   : 6 каналов
Расположение каналов                     : Front: L C R, Side: L R, LFE
Частота                                  : 48,0 КГц
Частота кадров                           : 31,250 кадров/сек (1536 SPF)
Битовая глубина                          : 16 бит
Метод сжатия                             : С потерями
Размер потока                            : 432 Мбайт (10%)
Заголовок                                : Оригинал
Язык                                     : English
ServiceKind                              : Complete Main
Default                                  : Нет
Forced                                   : Нет

Текст #1
Идентификатор                            : 5
Формат                                   : UTF-8
Идентификатор кодека                     : S_TEXT/UTF8
Идентификатор кодека/Информация          : UTF-8 Plain Text
Продолжительность                        : 2 ч. 8 м.
Битрейт                                  : 2 бит/сек
ElementCount                             : 48
Размер потока                            : 2,16 Кбайт (0%)
Заголовок                                : Forced
Язык                                     : Russian
Default                                  : Да
Forced                                   : Нет

Текст #2
Идентификатор                            : 6
Формат                                   : UTF-8
Идентификатор кодека                     : S_TEXT/UTF8
Идентификатор кодека/Информация          : UTF-8 Plain Text
Продолжительность                        : 2 ч. 8 м.
Битрейт                                  : 64 бит/сек
ElementCount                             : 1209
Размер потока                            : 60,7 Кбайт (0%)
Заголовок                                : Full
Язык                                     : Russian
Default                                  : Нет
Forced                                   : Нет

Текст #3
Идентификатор                            : 7
Формат                                   : UTF-8
Идентификатор кодека                     : S_TEXT/UTF8
Идентификатор кодека/Информация          : UTF-8 Plain Text
Продолжительность                        : 2 ч. 13 м.
Битрейт                                  : 38 бит/сек
ElementCount                             : 1383
Размер потока                            : 37,4 Кбайт (0%)
Заголовок                                : Full
Язык                                     : English
Default                                  : Нет
Forced                                   : Нет

Меню
00:00:00.000                             : en:Chapter 1
00:09:23.646                             : en:Chapter 2
00:18:31.860                             : en:Chapter 3
00:28:26.162                             : en:Chapter 4
00:38:36.981                             : en:Chapter 5
00:48:19.438                             : en:Chapter 6
00:59:30.775                             : en:Chapter 7
01:08:52.795                             : en:Chapter 8
01:16:58.822                             : en:Chapter 9
01:26:52.957                             : en:Chapter 10
01:38:15.306                             : en:Chapter 11
01:48:40.972                             : en:Chapter 12
02:04:07.898                             : en:Chapter 13
02:09:05.654                             : en:Chapter 14



Скриншоты:
[+] Всего файлов в раздаче - 1:
It_2017_BDRip_1080p_[HEVC]_10bit.mkv4.16 GB

Текущая раздача:
ДатаКомментарии    РазмерПиры
2017-12-22 U Оно / It (2017) BDRip-HEVC 1080p от ХиМиК | D, A | iTunes 4.16 GB ↑ 510 ↓ 100

Показать еще раздачи по запросу bdrip:
Сегодня U Капитан / Der Hauptmann (2017) BDRip 720p от ExKinoRay | A 4.43 GB ↑ 46 ↓ 33
Сегодня U Между рядами / In den Gängen (2018) BDRip от MegaPeer | iTunes 2.12 GB ↑ 47 ↓ 10
Сегодня U Хищник / The Predator (2018) BDRip 720p от HELLYWOOD | iTunes 4.33 GB ↑ 42 ↓ 46
Сегодня U Ремнант: Всё ещё вижу тебя / I Still See You (2018) BDRip 1080p от селезень | iTunes 5.32 GB ↑ 29 ↓ 44
Сегодня U Веном / Venom (2018) BDRip 720p от HELLYWOOD | HDRezka Studio 4.18 GB ↑ 109 ↓ 68
Сегодня U Между рядами / In den Gängen (2018) BDRip 1080p | iTunes 9.21 GB ↑ 117 ↓ 46
Вчера U Между рядами / In den Gängen (2018) BDRip от MegaPeer | iTunes 1.41 GB ↑ 190 ↓ 115

Отзывы
Зарегистрируйтесь чтобы добавить комментарий.
Обратная связь
Copyleft ©