↑↓Torrent.by
Поиск
Логин: Регистрация
Пароль: Восстановить пароль
Загрузка...

Осенний марафон (1979) WEBRip 720p от KORSAR

Скачать osenniy-marafon-1979-webrip-720p-ot-korsar.torrent
U Магнитная ссылка Размер: 4.76 GB Раздают: 49 Качают: 38 Добавлен: 2017-12-22 00:49:40
Осенний марафон (1979) WEBRip 720p от KORSAR

Осенний марафон

Страна: СССР
Производство: Мосфильм, Ленфильм
Жанр:  Драма, мелодрама, комедия
Год выпуска: 1979
Продолжительность: 01:28:44

Режиссер: Георгий Данелия
В ролях: Олег Басилашвили, Наталья Гундарева, Евгений Леонов, Марина Неелова, Николай Крючков, Ольга Богданова, Борислав Брондуков, Владимир Фирсов, Владимир Грамматиков, Людмила Иванова, Норберт Кухинке, Галина Волчек

Описание: У талантливого педагога и переводчика Бузыкина нерешительный характер. Он не может оставить жену и уйти к любимой женщине, не может отказать эксплуатирующей его талант сокурснице, терпит посещения доморощенного философа-алкаша, а когда, наконец, решается на смелый шаг — терпит фиаско, так как по природе мягок и податлив, как воск.

Кодек: х264
Качество: WEBRip 720p
Видео: MPEG-4 AVC, 998x720, 25 fps, 7362 Кбит/с
Звук: AC3, 2 ch, 160 Кбит/с


[+] Инфо файл

x264 [info]: frame I:675   Avg QP:18.44  size:133290
x264 [info]: frame P:22101 Avg QP:19.98  size: 78512
x264 [info]: frame B:110356 Avg QP:22.04  size: 28779

Общее
Уникальный идентификатор                 : 231075898814799782087267822575016648690 (0xADD7996B6BBB86838C9C8718256E9FF2)
Полное имя                               : D:Осенний марафон_1979-WEBRip 720p_KORSAR.mkv
Формат                                   : Matroska
Версия формата                           : Version 2
Размер файла                             : 4,76 Гбайт
Продолжительность                        : 1 ч. 28 м.
Общий поток                              : 7675 Кбит/сек
Дата кодирования                         : UTC 2017-10-06 18:33:34
Программа кодирования                    : mkvmerge v5.8.0 ('No Sleep / Pillow') built on Sep  2 2012 15:37:04
Библиотека кодирования                   : libebml v1.2.3 + libmatroska v1.3.0

Видео
Идентификатор                            : 1
Формат                                   : AVC
Формат/Информация                        : Advanced Video Codec
Профиль формата                          : High@L4.1
Параметр CABAC формата                   : Да
Параметр RefFrames формата               : 11 кадров
Идентификатор кодека                     : V_MPEG4/ISO/AVC
Продолжительность                        : 1 ч. 28 м.
Битрейт                                  : 7362 Кбит/сек
Ширина                                   : 988 пикселей
Высота                                   : 720 пикселей
Соотношение сторон                       : 1,372
Режим частоты кадров                     : Постоянный
Частота кадров                           : 25,000 кадров/сек
Цветовое пространство                    : YUV
Субдискретизация насыщенности            : 4:2:0
Битовая глубина                          : 8 бит
Тип развёртки                            : Прогрессивная
Бит/(Пиксели*Кадры)                      : 0.414
Размер потока                            : 4,56 Гбайт (96%)
Библиотека кодирования                   : x264 core 148 r2744kMod b97ae06
Настройки программы                      : cabac=1 / ref=11 / deblock=1:-2:-1 / analyse=0x3:0x113 / me=umh / subme=10 / psy=1 / fade_compensate=0.00 / psy_rd=1.05:0.07 / mixed_ref=1 / me_range=32 / chroma_me=1 / trellis=2 / 8x8dct=1 / cqm=0 / deadzone=21,11 / fast_pskip=1 / chroma_qp_offset=-3 / threads=12 / lookahead_threads=3 / sliced_threads=0 / nr=0 / decimate=1 / interlaced=0 / bluray_compat=0 / constrained_intra=0 / bframes=11 / b_pyramid=2 / b_adapt=2 / b_bias=0 / direct=1 / weightb=1 / open_gop=0 / weightp=2 / keyint=250 / keyint_min=25 / scenecut=40 / intra_refresh=0 / rc=crf / mbtree=0 / crf=19.0000 / qcomp=0.63 / qpmin=0 / qpmax=39 / qpstep=4 / ip_ratio=1.40 / pb_ratio=1.30 / aq=2:0.90
Язык                                     : English
Default                                  : Да
Forced                                   : Нет
Цветовой диапазон                        : Limited
Основные цвета                           : BT.709
Характеристики трансфера                 : BT.709
Коэффициенты матрицы                     : BT.709

Аудио
Идентификатор                            : 2
Формат                                   : AC-3
Формат/Информация                        : Audio Coding 3
Параметр Endianness формата              : Big
Идентификатор кодека                     : A_AC3
Продолжительность                        : 1 ч. 28 м.
Вид битрейта                             : Постоянный
Битрейт                                  : 160 Кбит/сек
Каналы                                   : 2 канала
Расположение каналов                     : Front: L R
Частота                                  : 48,0 КГц
Частота кадров                           : 31,250 кадров/сек (1536 SPF)
Битовая глубина                          : 16 бит
Метод сжатия                             : С потерями
Размер потока                            : 102 Мбайт (2%)
Язык                                     : Russian
Default                                  : Да
Forced                                   : Нет




Скриншоты:
[+] Всего файлов в раздаче - 1:
Осенний марафон_1979-WEBRip 720p_KORSAR.mkv4.76 GB

Текущая раздача:
ДатаКомментарии    РазмерПиры
2017-12-22 U Осенний марафон (1979) WEBRip 720p от KORSAR 4.76 GB ↑ 49 ↓ 38

Показать еще раздачи по запросу осенний:
2017-11-14 U VA - Дискотека 2017 - Осенний Бодрячок [Compiled by ZeByte] (2017) MP3 716.31 MB ↑ 142 ↓ 51
2017-11-13 U Сборник - Русское радио. Все будет хорошо Осенний №10 (2017) MP3 674.70 MB ↑ 40 ↓ 41
2017-10-23 U Сборник - Осенний Русский Рок (2017) MP3 462.19 MB ↑ 272 ↓ 17
2017-09-17 U Сборник - Осенний Выпуск. Шансон за рулем (2017) MP3 674.21 MB ↑ 252 ↓ 64
2017-09-11 U Сборник - Русское радио. Все будет хорошо Осенний №2 (2017) MP3 674.48 MB ↑ 84 ↓ 23
2016-10-26 U Сборник - Зайцев.нет Осенний топ №9 (2016) MP3 676.75 MB ↑ 430 ↓ 0
2016-09-18 U VA - Осенний Хаус Калейдоскоп Топ 50 [Compiled by Zebyte] (2016) MP3 1К514.78 MB ↑ 325 ↓ 9

Отзывы
Зарегистрируйтесь чтобы добавить комментарий.
Обратная связь
Copyleft ©