↑↓Torrent.by
Поиск
Логин: Регистрация
Пароль: Восстановить пароль
Загрузка...

Плохой хороший человек (1973) DVDRip-AVC от KORSAR

Скачать plohoy-horoshiy-chelovek-1973-dvdrip-avc-ot-korsar.torrent
U Магнитная ссылка Размер: 2.13 GB Раздают: 36 Качают: 20 Добавлен: 2017-12-22 00:50:16
Плохой хороший человек (1973) DVDRip-AVC от KORSAR

Плохой хороший человек

Выпущено: СССР, Студия: "Ленфильм"
Жанр:  драма
Год выпуска: 1973
Продолжительность: 01:34:18
Перевод: Не требуется

Режиссер: Иосиф Хейфиц
В ролях: Олег Даль, Владимир Высоцкий, Людмила Максакова, Анатолий Папанов, Георгий Корольчук (озвучание - Гелий Сысоев), Анатолий Азо, Ашот Меликджанян, Любовь Малиновская, Юрий Медведев, Андрей Апсолон, Анхель Гутьерес, Игорь Ефимов, Таня Иванова, Дима Игнатьев, Павел Кашлаков, Герман Лупекин, Ашот Нерсесян, Гелий Сысоев, Любовь Тищенко, Олег Хроменков

О Фильме: В маленьком городке на берегу Черного моря живут два приятеля - Иван Андреевич Лаевский и доктор Самойленко. Два года назад Лаевский сошелся с замужней женщиной, они бежали из Петербурга на Кавказ, говоря себе, что начнут там новую трудовую жизнь. Но городок оказался скучным, люди неинтересными, трудиться на земле в поте лица Лаевский не умел и не желал и поэтому с первого дня он почувствовал себя банкротом. Он мечтает бежать назад, на север, но и разойтись с Надеждой Федоровной нельзя: у нее нет родных, нет денег, работать она не умеет. Самойленко держит у себя нечто вроде пансиона, у него столуются молодой зоолог фон Корен и только что окончивший семинарию дьякон Победов. За обедом разговор заходит о Лаевском...

Кодек: х264
Качество: DVDRip-AVC
Видео: MPEG-4 AVC, 718x436@1021x436, 25 fps, 2650 Кбит/с
Аудио 1: AC3, 6 ch, 448 Кбит/с
Аудио 2: AC3, 1 ch, 192 Кбит/с


[+] Инфо файл

x264 [info]: frame I:773   Avg QP:14.15  size: 95150
x264 [info]: frame P:30846 Avg QP:17.74  size: 34851
x264 [info]: frame B:109842 Avg QP:19.39  size:  6610

Общее
Уникальный идентификатор                 : 172248528647276677992171386090438516953 (0x8195DC23B4F40ED4ADB034E00CA7E0D9)
Полное имя                               : E:Мои рипыПлохой хороший человек 1973_DVDRip-AVC_KORSAR.mkv
Формат                                   : Matroska
Версия формата                           : Version 2
Размер файла                             : 2,13 Гбайт
Продолжительность                        : 1 ч. 34 м.
Общий поток                              : 3228 Кбит/сек
Дата кодирования                         : UTC 2017-12-20 10:22:00
Программа кодирования                    : mkvmerge v5.8.0 ('No Sleep / Pillow') built on Sep  2 2012 15:37:04
Библиотека кодирования                   : libebml v1.2.3 + libmatroska v1.3.0

Видео
Идентификатор                            : 1
Формат                                   : AVC
Формат/Информация                        : Advanced Video Codec
Профиль формата                          : High@L4.1
Настройки формата                        : CABAC / 15 Ref Frames
Параметр CABAC формата                   : Да
Параметр RefFrames формата               : 15 кадров
Идентификатор кодека                     : V_MPEG4/ISO/AVC
Продолжительность                        : 1 ч. 34 м.
Битрейт                                  : 2650 Кбит/сек
Ширина                                   : 718 пикселей
Высота                                   : 436 пикселей
Соотношение сторон                       : 2,35:1
Режим частоты кадров                     : Постоянный
Частота кадров                           : 25,000 кадров/сек
Цветовое пространство                    : YUV
Субдискретизация насыщенности            : 4:2:0
Битовая глубина                          : 8 бит
Тип развёртки                            : Прогрессивная
Бит/(Пиксели*Кадры)                      : 0.339
Размер потока                            : 1,70 Гбайт (80%)
Библиотека кодирования                   : x264 core 152 r2851kMod ba24899
Настройки программы                      : cabac=1 / ref=15 / deblock=1:-2:-1 / analyse=0x3:0x133 / me=umh / subme=11 / psy=1 / fade_compensate=0.00 / psy_rd=1.05:0.10 / mixed_ref=1 / me_range=48 / chroma_me=1 / trellis=2 / 8x8dct=1 / cqm=0 / deadzone=21,11 / fast_pskip=0 / chroma_qp_offset=-3 / threads=12 / lookahead_threads=3 / sliced_threads=0 / nr=0 / decimate=0 / interlaced=0 / bluray_compat=0 / constrained_intra=0 / bframes=12 / b_pyramid=2 / b_adapt=2 / b_bias=0 / direct=3 / weightb=1 / open_gop=0 / weightp=2 / keyint=250 / keyint_min=25 / scenecut=40 / intra_refresh=0 / rc_lookahead=40 / rc=2pass / mbtree=0 / bitrate=2650 / ratetol=1.0 / qcomp=0.60 / qpmin=0 / qpmax=39 / qpstep=4 / cplxblur=20.0 / qblur=0.5 / vbv_maxrate=50000 / vbv_bufsize=62500 / nal_hrd=none / filler=0 / ip_ratio=1.40 / pb_ratio=1.30 / aq=2:1.00
Язык                                     : English
Default                                  : Да
Forced                                   : Нет
Цветовой диапазон                        : Limited
Основные цвета                           : BT.709
Характеристики трансфера                 : BT.470bg
Коэффициенты матрицы                     : BT.470bg

Аудио #1
Идентификатор                            : 2
Формат                                   : AC-3
Формат/Информация                        : Audio Coding 3
Параметр Endianness формата              : Big
Идентификатор кодека                     : A_AC3
Продолжительность                        : 1 ч. 34 м.
Вид битрейта                             : Постоянный
Битрейт                                  : 448 Кбит/сек
Каналы                                   : 6 каналов
Расположение каналов                     : Front: L C R, Side: L R, LFE
Частота                                  : 48,0 КГц
Частота кадров                           : 31,250 кадров/сек (1536 SPF)
Битовая глубина                          : 16 бит
Метод сжатия                             : С потерями
Размер потока                            : 302 Мбайт (14%)
Default                                  : Да
Forced                                   : Нет

Аудио #2
Идентификатор                            : 3
Формат                                   : AC-3
Формат/Информация                        : Audio Coding 3
Параметр Endianness формата              : Big
Идентификатор кодека                     : A_AC3
Продолжительность                        : 1 ч. 34 м.
Вид битрейта                             : Постоянный
Битрейт                                  : 128 Кбит/сек
Каналы                                   : 1 канал
Расположение каналов                     : Front: C
Частота                                  : 48,0 КГц
Частота кадров                           : 31,250 кадров/сек (1536 SPF)
Битовая глубина                          : 16 бит
Метод сжатия                             : С потерями
Размер потока                            : 86,3 Мбайт (4%)
Default                                  : Нет
Forced                                   : Нет



Скриншоты:
[+] Всего файлов в раздаче - 1:
Плохой хороший человек 1973_DVDRip-AVC_KORSAR.mkv2.13 GB

Текущая раздача:
ДатаКомментарии    РазмерПиры
2017-12-22 U Плохой хороший человек (1973) DVDRip-AVC от KORSAR 1 К 2.13 GB ↑ 36 ↓ 20

Показать еще раздачи по запросу плохой:
2018-01-11 U Плохой лейтенант / Bad Lieutenant (1992) BDRip | P, A 2.18 GB ↑ 39 ↓ 16
2018-01-06 U Плохой гений / Bad Genius (2017) HDRip | L2 1.46 GB ↑ 85 ↓ 105
2017-12-18 U Плохой гений / Bad Genius (2017) BDRip 1080p | L2 11.72 GB ↑ 65 ↓ 38
2017-12-14 U Плохой гений / Bad Genius (2017) BDRip 720p | L2 5.39 GB ↑ 51 ↓ 64
2017-12-14 U Плохой день, чтобы свести счёты / Bad Day for the Cut (2017) WEB-DLRip | L 1.36 GB ↑ 55 ↓ 29
2017-11-22 U Плохой хороший полицейский 2 / Bon Cop Bad Cop 2 (2017) BDRip 720p | L 4.01 GB ↑ 106 ↓ 68
2017-11-22 U Плохой хороший полицейский 2 / Bon Cop Bad Cop 2 (2017) HDRip | L 2.05 GB ↑ 57 ↓ 66

Отзывы
hanna
Шикарный фильм! Шикарные русские актёры! Классика! Спасибо большое!

Зарегистрируйтесь чтобы добавить комментарий.
Обратная связь
Copyleft ©