↑↓Torrent.by
Поиск
Логин: Регистрация
Пароль: Восстановить пароль
Загрузка...

Салют-7 (2017) BDRip 1080p от OlLanDGroup | Лицензия

Скачать salyut-7-2017-bdrip-1080p-ot-ollandgroup-licenziya.torrent
U Магнитная ссылка Размер: 9.21 GB Раздают: 1200 Качают: 616 Добавлен: 2017-12-22 17:02:23
Салют-7 (2017) BDRip 1080p от OlLanDGroup | Лицензия

Название: Салют-7
Год выхода: 2017
Страна: Россия
Студия: Канал Россия, Кинокомпания CTB, Lemon Films Studio, Vita Aktiva
Жанр: Драма, приключения, триллер
Режиссер: Клим Шипенко
В ролях: Владимир Вдовиченков, Павел Деревянко, Александр Самойленко, Виталий Хаев, Оксана Фандера, Любовь Аксенова, Роман Перелыгин, Полина Руденко, Александра Серебрякова, Мария Миронова

О фильме: Космическая станция «Салют-7», находящаяся на орбите в беспилотном режиме, неожиданно перестает отвечать на сигналы центра управления полетом. Принято решение об отправке на орбиту спасательной экспедиции. Космический экипаж должен найти «мертвую» станцию и впервые в мире провести стыковку с 20-тонной глыбой неуправляемого железа.

Качество: BDRip 1080p
Видео: MPEG-4 AVC, 9773 Kбит/с, 1920x860, 23.976 кадр/с
Аудио: AC3, 6 ch, 640 Кбит/с, DTS, 6 ch, 1509 Кбит/с
Размер: 9.21 ГБ
Продолжительность: 01:50:42
Язык: Русский

Озвучивание - (Лицензия)
Сохранены оригинальные чаптеры как на Blu-Ray.

Релиз:  Rip by:


[+] x264

x264 [info]: frame I:1103  Avg QP:15.06  size:228507
x264 [info]: frame P:36054 Avg QP:17.53  size: 88549
x264 [info]: frame B:122103 Avg QP:19.01  size: 38129
x264 [info]: consecutive B-frames:  2.6%  3.8% 13.6% 13.3% 16.7% 36.0%  5.7%  2.1%  1.9%  1.9%  2.6%
x264 [info]: mb I  I16..4: 12.7% 71.1% 16.2%
x264 [info]: mb P  I16..4:  4.5% 25.9%  3.4%  P16..4: 25.9% 25.8%  7.7%  0.9%  0.1%    skip: 5.7%
x264 [info]: mb B  I16..4:  1.2%  4.9%  0.6%  B16..8: 34.7% 17.8%  2.8%  direct:11.4%  skip:26.7%  L0:42.4% L1:42.0% BI:15.6%
x264 [info]: 8x8 transform intra:74.9% inter:60.3%
x264 [info]: direct mvs  spatial:95.6% temporal:4.4%
x264 [info]: coded y,uvDC,uvAC intra: 76.5% 78.3% 62.3% inter: 32.8% 44.8% 22.0%
x264 [info]: i16 v,h,dc,p: 26% 15% 19% 40%
x264 [info]: i8 v,h,dc,ddl,ddr,vr,hd,vl,hu:  9%  9% 19%  9% 10% 10% 11% 10% 13%
x264 [info]: i4 v,h,dc,ddl,ddr,vr,hd,vl,hu: 18% 13% 31%  5%  7%  6%  7%  6%  7%
x264 [info]: i8c dc,h,v,p: 48% 26% 16% 10%
x264 [info]: Weighted P-Frames: Y:3.7% UV:2.0%
x264 [info]: ref P L0: 50.8% 11.3% 22.0%  8.1%  6.9%  0.8%  0.0%
x264 [info]: ref B L0: 74.9% 18.1%  5.6%  1.4%
x264 [info]: ref B L1: 91.4%  8.6%
x264 [info]: kb/s:9755.68



[+] Инфо-файл

Общее
Уникальный идентификатор                 : 214225030235879807292454359647270445751 (0xA12A3D745DB1EF089DB49DCF1F43A2B7)
Полное имя                               : D:ЗагрузкиSalyut-7.2017.x264.BDRip.(1080p).OlLanDGroup.mkv
Формат                                   : Matroska
Версия формата                           : Version 4 / Version 2
Размер файла                             : 9,21 Гбайт
Продолжительность                        : 1 ч. 50 м.
Общий поток                              : 11,9 Мбит/сек
Название фильма                          : Салют-7.2017.Rip by: ollan
Дата кодирования                         : UTC 2017-12-22 09:31:06
Программа кодирования                    : mkvmerge v6.5.0 ('Isn't she lovely') built on Oct 20 2013 12:50:05
Библиотека кодирования                   : libebml v1.3.0 + libmatroska v1.4.1
Attachements                             : Cover - Salyut-7.png / Cover - Salyut-7.png

Видео
Идентификатор                            : 1
Формат                                   : AVC
Формат/Информация                        : Advanced Video Codec
Профиль формата                          : High@L4.1
Параметр CABAC формата                   : Да
Параметр ReFrames формата                : 5 кадров
Идентификатор кодека                     : V_MPEG4/ISO/AVC
Продолжительность                        : 1 ч. 50 м.
Битрейт                                  : 9773 Кбит/сек
Ширина                                   : 1920 пикселей
Высота                                   : 860 пикселей
Соотношение сторон                       : 2,25:1
Режим частоты кадров                     : Постоянный
Частота кадров                           : 23,976 (24000/1001) кадра/сек
Цветовое пространство                    : YUV
Субдискретизация насыщенности            : 4:2:0
Битовая глубина                          : 8 бит
Тип развёртки                            : Прогрессивная
Бит/(Пиксели*Кадры)                      : 0.247
Размер потока                            : 7,36 Гбайт (80%)
Библиотека кодирования                   : x264 core 146 r2538 121396c
Настройки программы                      : cabac=1 / ref=5 / deblock=1:-2:-3 / analyse=0x3:0x133 / me=umh / subme=11 / psy=1 / psy_rd=0.95:0.05 / mixed_ref=1 / me_range=64 / chroma_me=1 / trellis=2 / 8x8dct=1 / cqm=0 / deadzone=21,11 / fast_pskip=0 / chroma_qp_offset=-3 / threads=12 / lookahead_threads=3 / sliced_threads=0 / nr=0 / decimate=0 / interlaced=0 / bluray_compat=0 / constrained_intra=0 / bframes=10 / b_pyramid=2 / b_adapt=2 / b_bias=0 / direct=3 / weightb=1 / open_gop=0 / weightp=2 / keyint=240 / keyint_min=23 / scenecut=40 / intra_refresh=0 / rc_lookahead=40 / rc=2pass / mbtree=0 / bitrate=9773 / ratetol=1.0 / qcomp=0.60 / qpmin=0 / qpmax=69 / qpstep=4 / cplxblur=20.0 / qblur=0.5 / vbv_maxrate=50000 / vbv_bufsize=62500 / nal_hrd=none / filler=0 / ip_ratio=1.40 / pb_ratio=1.30 / aq=1:1.00
Язык                                     : Russian
Default                                  : Да
Forced                                   : Нет

Аудио #1
Идентификатор                            : 2
Формат                                   : AC-3
Формат/Информация                        : Audio Coding 3
Расширение режима                        : CM (complete main)
Параметр Endianness формата              : Big
Идентификатор кодека                     : A_AC3
Продолжительность                        : 1 ч. 50 м.
Вид битрейта                             : Постоянный
Битрейт                                  : 640 Кбит/сек
Каналы                                   : 6 каналов
Расположение каналов                     : Front: L C R, Side: L R, LFE
Частота                                  : 48,0 КГц
Частота кадров                           : 31,250 кадров/сек (1536 spf)
Метод сжатия                             : С потерями
Размер потока                            : 507 Мбайт (5%)
Заголовок                                : Лицензия
Язык                                     : Russian
Default                                  : Да
Forced                                   : Нет

Аудио #2
Идентификатор                            : 3
Формат                                   : DTS
Формат/Информация                        : Digital Theater Systems
Режим                                    : 16
Параметр Endianness формата              : Big
Идентификатор кодека                     : A_DTS
Продолжительность                        : 1 ч. 50 м.
Вид битрейта                             : Постоянный
Битрейт                                  : 1509 Кбит/сек
Каналы                                   : 6 каналов
Расположение каналов                     : Front: L C R, Side: L R, LFE
Частота                                  : 48,0 КГц
Частота кадров                           : 93,750 кадра/сек (512 spf)
Битовая глубина                          : 24 бит
Метод сжатия                             : С потерями
Размер потока                            : 1,17 Гбайт (13%)
Заголовок                                : Лицензия
Язык                                     : Russian
Default                                  : Нет
Forced                                   : Нет

Меню
00:00:00.000                             : ru:Chapter 01
00:14:40.629                             : ru:Chapter 02
00:26:47.814                             : ru:Chapter 03
00:41:13.721                             : ru:Chapter 04
00:54:44.322                             : ru:Chapter 05
01:09:28.914                             : ru:Chapter 06
01:22:12.093                             : ru:Chapter 07
01:37:55.578                             : ru:Chapter 08




Скриншоты:
[+] Всего файлов в раздаче - 1:
Salyut-7.2017.x264.BDRip.(1080p).OlLanDGroup.mkv9.21 GB

Текущая раздача:
ДатаКомментарии    РазмерПиры
2017-12-22 U Салют-7 (2017) BDRip 1080p от OlLanDGroup | Лицензия 9.21 GB ↑ 1200 ↓ 616

Показать еще раздачи по запросу салют:
2017-12-28 U Салют-7 (2017) BDRip от ExKinoRay | Лицензия 1.46 GB ↑ 113 ↓ 47
2017-12-26 U Салют-7 (2017) BDRip от HQ-ViDEO | Лицензия 2.05 GB ↑ 53 ↓ 43
2017-12-26 U Салют-7 (2017) BDRip 1080p от Ash61 | 3D-Video | halfOU | Лицензия 9.75 GB ↑ 82 ↓ 48
2017-12-26 U Салют-7 (2017) HDRip от Scarabey | Лицензия 743.49 MB ↑ 34 ↓ 11
2017-12-25 U Салют-7 (2017) BDRip-AVC от HELLYWOOD | Лицензия 2.18 GB ↑ 118 ↓ 58
2017-12-25 U Салют-7 (2017) BDRip 720p от HELLYWOOD | Лицензия 4.37 GB ↑ 52 ↓ 54
2017-12-25 U Салют-7 (2017) BDRip-AVC от ExKinoRay | Лицензия 1.89 GB ↑ 30 ↓ 28

Отзывы
Зарегистрируйтесь чтобы добавить комментарий.
Обратная связь
Copyleft ©