↑↓Torrent.by
Поиск
Логин: Регистрация
Пароль: Восстановить пароль
Загрузка...

Мужики!.. (1981) WEB-DLRip-AVC от KORSAR

Скачать muzhiki-1981-web-dlrip-avc-ot-korsar.torrent
U Магнитная ссылка Размер: 3.53 GB Раздают: 78 Качают: 11 Добавлен: 2017-12-22 18:53:18
Мужики!.. (1981) WEB-DLRip-AVC от KORSAR

Мужики!..

Год выхода: 1981
Жанр:  Драма
Продолжительность: 01:32:11

Режиссер: Искра Бабич
В ролях: Александр Михайлов, Ирина Иванова, Михаил Бузылев-Крэцо, Петр Крылов, Петр Глебов, Вера Альховская, Александр Павлов, Анатолий Солоницын, Мария Андрианова, Леонард Варфоломеев, Татьяна Махова, Афанасий Кочетков, Алексей Михайлов, Дмитрий Бузылев-Крэцо, Светлана Тормахова, Вера Лескова, Рада Субботина, Анна Багдасарян, Ирина Уральская, Владимир Ломизов, Таисия Нестеркина, Тарик Габидзашвили, Людмила Гамуряк, Александр Соколов

О фильме: Получив письмо от матери об измене Насти, Павел Зубов решил не возвращаться после окончания службы в армии домой и остался работать на Севере. Однажды, узнав о том, что умерла его бывшая невеста, шахтер Павел приезжает в родное село. У него на руках оказываются трое сирот. Старшая дочь - его, Павла. Осознание ответственности перед нею приводит Павла к мужественному решению: он усыновляет и двух мальчишек...

Этому фильму сопутствовал большой успех в советском кинопрокате в начале 80-х годов. Снятый в скромной, неприхотливой манере, без показного блеска и изыска, он словно и не рассчитывал на соревнование с популярными картинами той поры, однако вызвал горячую ответную реакцию публики.
Лучший фильм по опросу журнала «Советский экран» в 1983 году.

Награды: Берлинский кинофестиваль - Золотой Медведь, 1982 год

Кодек: х264
Качество: WEB-DLRip-AVC
Видео: MPEG-4 AVC, 864x648, 25 fps, 5180 Кбит/с
Звук: AC3, 2 ch, 192 Кбит/с


[+] Инфо файл

x264 [info]: frame I:660   Avg QP:19.39  size:104262
x264 [info]: frame P:35733 Avg QP:20.54  size: 61917
x264 [info]: frame B:101898 Avg QP:22.80  size: 13465

Общее
Уникальный идентификатор                 : 240450969678714060455175103544203436589 (0xB4E52C19A1E02E3AA4726DBF5164622D)
Полное имя                               : D:Мужики_1981-WEB-DLRip-AVC_KORSAR.mkv
Формат                                   : Matroska
Версия формата                           : Version 2
Размер файла                             : 3,53 Гбайт
Продолжительность                        : 1 ч. 32 м.
Общий поток                              : 5477 Кбит/сек
Название фильма                          : Мужики_1981-WEB-DLRip-AVC_KORSAR
Дата кодирования                         : UTC 2017-10-13 15:53:51
Программа кодирования                    : mkvmerge v5.8.0 ('No Sleep / Pillow') built on Sep  2 2012 15:37:04
Библиотека кодирования                   : libebml v1.2.3 + libmatroska v1.3.0

Видео
Идентификатор                            : 1
Формат                                   : AVC
Формат/Информация                        : Advanced Video Codec
Профиль формата                          : High@L4.1
Параметр CABAC формата                   : Да
Параметр RefFrames формата               : 14 кадров
Идентификатор кодека                     : V_MPEG4/ISO/AVC
Продолжительность                        : 1 ч. 32 м.
Битрейт                                  : 5176 Кбит/сек
Ширина                                   : 864 пикселя
Высота                                   : 648 пикселей
Соотношение сторон                       : 4:3
Режим частоты кадров                     : Постоянный
Частота кадров                           : 25,000 кадров/сек
Цветовое пространство                    : YUV
Субдискретизация насыщенности            : 4:2:0
Битовая глубина                          : 8 бит
Тип развёртки                            : Прогрессивная
Бит/(Пиксели*Кадры)                      : 0.370
Размер потока                            : 3,33 Гбайт (95%)
Библиотека кодирования                   : x264 core 148 r2744kMod b97ae06
Настройки программы                      : cabac=1 / ref=14 / deblock=1:-2:-1 / analyse=0x3:0x113 / me=umh / subme=10 / psy=1 / fade_compensate=0.00 / psy_rd=0.75:0.10 / mixed_ref=1 / me_range=32 / chroma_me=1 / trellis=2 / 8x8dct=1 / cqm=0 / deadzone=21,11 / fast_pskip=1 / chroma_qp_offset=-3 / threads=12 / lookahead_threads=2 / sliced_threads=0 / nr=0 / decimate=1 / interlaced=0 / bluray_compat=0 / constrained_intra=0 / bframes=9 / b_pyramid=2 / b_adapt=2 / b_bias=0 / direct=1 / weightb=1 / open_gop=0 / weightp=2 / keyint=250 / keyint_min=25 / scenecut=40 / intra_refresh=0 / rc=crf / mbtree=0 / crf=17.3000 / qcomp=0.63 / qpmin=0 / qpmax=39 / qpstep=4 / ip_ratio=1.40 / pb_ratio=1.30 / aq=2:0.70
Язык                                     : English
Default                                  : Да
Forced                                   : Нет
Цветовой диапазон                        : Limited
Основные цвета                           : BT.709
Характеристики трансфера                 : BT.709
Коэффициенты матрицы                     : BT.709

Аудио
Идентификатор                            : 2
Формат                                   : AC-3
Формат/Информация                        : Audio Coding 3
Параметр Endianness формата              : Big
Идентификатор кодека                     : A_AC3
Продолжительность                        : 1 ч. 32 м.
Вид битрейта                             : Постоянный
Битрейт                                  : 192 Кбит/сек
Каналы                                   : 2 канала
Расположение каналов                     : Front: L R
Частота                                  : 48,0 КГц
Частота кадров                           : 31,250 кадров/сек (1536 SPF)
Битовая глубина                          : 16 бит
Метод сжатия                             : С потерями
Размер потока                            : 127 Мбайт (4%)
Язык                                     : Russian
Default                                  : Да
Forced                                   : Нет

Меню
00:00:00.000                             : en:Chapter 1
00:12:25.440                             : en:Chapter 2
00:19:51.360                             : en:Chapter 3
00:25:12.960                             : en:Chapter 4
00:35:18.720                             : en:Chapter 5
00:39:54.240                             : en:Chapter 6
00:54:21.120                             : en:Chapter 7
01:01:03.360                             : en:Chapter 8
01:14:03.840                             : en:Chapter 9
01:28:51.360                             : en:Chapter 10




Скриншоты:
[+] Всего файлов в раздаче - 1:
Мужики_1981-WEB-DLRip-AVC_KORSAR.mkv3.53 GB

Текущая раздача:
ДатаКомментарии    РазмерПиры
2017-12-22 U Мужики!.. (1981) WEB-DLRip-AVC от KORSAR 3.53 GB ↑ 78 ↓ 11

Похожие раздачи по запросу - мужики:
2017-03-20 U Следствие вели... с Леонидом Каневским. Мужики. Подлинная история [19.03] (2017) HDTVRip от GeneralFim 525.58 MB ↑ 148 ↓ 9
2014-02-17 U Из мальчишек в мужики 2 / Ah Boys to Men 2 (2013) DVDRip от GOLIAF | L1 1.37 GB ↑ 76 ↓ 59

Отзывы
Зарегистрируйтесь чтобы добавить комментарий.
Обратная связь
Copyleft ©