↑↓Torrent.by
Поиск
Логин: Регистрация
Пароль: Восстановить пароль
Загрузка...

Валериан и город тысячи планет / Valerian and the City of a Thousand Planets (2017) BDRip 1080p от qqss44 & MegaPeer | Лицензия | Локализованная версия

Скачать valerian-i-gorod-tysyachi-planet-and-the-city-of-a-thousand-planets-2017-bdrip-1080p-ot-qqss44-megapeer-licenziya-lokalizovannaya-versiya.torrent
U Магнитная ссылка Размер: 7.78 GB Раздают: 262 Качают: 179 Добавлен: 2017-12-22 22:03:43
Валериан и город тысячи планет / Valerian and the City of a Thousand Planets (2017) BDRip 1080p от qqss44 & MegaPeer | Лицензия | Локализованная версия

Анонсы 1080p от qqss44

Информация о фильме
Название: Валериан и город тысячи планет
Оригинальное название: Valerian and the City of a Thousand Planets
Год выпуска: 2017
Жанр: Фантастика, фэнтези, боевик, приключения
Режиссер: Люк Бессон
В ролях: Дэйн ДеХаан, Кара Делевинь, Клайв Оуэн, Рианна, Итэн Хоук, Херби Хэнкок, Крис У, Сэм Спруэлл, Ален Шаба, Рутгер Хауэр

О фильме:
2700 год. Валериан и Лорелин — космические спецагенты, которые по долгу службы впутались в подозрительное дело и стали невольными участниками то ли межгалактического заговора, то ли аферы причудливых поселенцев планеты Альфа, прибывших туда из различных миров со всех уголков галактик.

Страна: Франция, Китай, Бельгия, Германия, ОАЭ, США, Великобритания, Канада
Студия: EuropaCorp, Fundamental Films, Grive Productions, Gulf Film, Novo Pictures
Продолжительность: 02:16:57
Перевод: Профессиональный (полное дублирование) «Лицензия»

Файл
Формат: MKV, BDRip 1080p
Видео: MPEG-4 AVC, 7500 Кбит/с, 1920x804
Aудио#1: [RUS] AC3 | 48 KHz | 5.1 (Front: L С R Side: L R) + LFE | ~640 kbps
Релиз от:


[+] МИ

Общее
Уникальный идентификатор                 : 192377374658945228078350212852606007218 (0x90BA88DEAE119E038F88AB624B5377B2)
Полное имя                               : X:�0000Valerian.and.the.City.of.a.Thousand.Planets.(2017).BDRip.1080p.MegaPeer.(qqss44).mkv
Формат                                   : Matroska
Версия формата                           : Version 2
Размер файла                             : 7,78 Гбайт
Продолжительность                        : 2 ч. 16 м.
Общий поток                              : 8136 Кбит/сек
Название фильма                          : Valerian.and.the.City.of.a.Thousand.Planets.(2017).BDRip.1080p.MegaPeer.(qqss44)
Дата кодирования                         : UTC 2017-12-22 12:05:39
Программа кодирования                    : mkvmerge v5.8.0 ('No Sleep / Pillow') built on Sep  2 2012 15:37:04
Библиотека кодирования                   : libebml v1.2.3 + libmatroska v1.3.0

Видео
Идентификатор                            : 1
Формат                                   : AVC
Формат/Информация                        : Advanced Video Codec
Профиль формата                          : High@L4.1
Параметр CABAC формата                   : Да
Параметр ReFrames формата                : 5 кадров
Идентификатор кодека                     : V_MPEG4/ISO/AVC
Продолжительность                        : 2 ч. 16 м.
Битрейт                                  : 7500 Кбит/сек
Ширина                                   : 1920 пикселей
Высота                                   : 804 пикселя
Соотношение сторон                       : 2,40:1
Режим частоты кадров                     : Постоянный
Частота кадров                           : 23,976 (24000/1001) кадра/сек
Цветовое пространство                    : YUV
Субдискретизация насыщенности            : 4:2:0
Битовая глубина                          : 8 бит
Тип развёртки                            : Прогрессивная
Бит/(Пиксели*Кадры)                      : 0.203
Размер потока                            : 7,02 Гбайт (90%)
Библиотека кодирования                   : x264 core 152 r2851kMod ba24899
Настройки программы                      : cabac=1 / ref=5 / deblock=1:-1:-1 / analyse=0x3:0x113 / me=umh / subme=11 / psy=1 / fade_compensate=0.00 / psy_rd=1.00:0.00 / mixed_ref=1 / me_range=32 / chroma_me=1 / trellis=2 / 8x8dct=1 / cqm=0 / deadzone=21,11 / fast_pskip=0 / chroma_qp_offset=-2 / threads=12 / lookahead_threads=2 / sliced_threads=0 / nr=0 / decimate=0 / interlaced=0 / bluray_compat=0 / constrained_intra=0 / bframes=9 / b_pyramid=2 / b_adapt=2 / b_bias=0 / direct=3 / weightb=1 / open_gop=0 / weightp=2 / keyint=240 / keyint_min=23 / scenecut=40 / intra_refresh=0 / rc_lookahead=40 / rc=2pass / mbtree=0 / bitrate=7500 / ratetol=1.0 / qcomp=0.70 / qpmin=0 / qpmax=69 / qpstep=4 / cplxblur=20.0 / qblur=0.5 / vbv_maxrate=50000 / vbv_bufsize=62500 / nal_hrd=none / filler=0 / ip_ratio=1.40 / pb_ratio=1.30 / aq=3:0.70
Язык                                     : English
Default                                  : Да
Forced                                   : Нет

Аудио
Идентификатор                            : 2
Формат                                   : AC-3
Формат/Информация                        : Audio Coding 3
Расширение режима                        : CM (complete main)
Параметр Endianness формата              : Big
Идентификатор кодека                     : A_AC3
Продолжительность                        : 2 ч. 16 м.
Вид битрейта                             : Постоянный
Битрейт                                  : 640 Кбит/сек
Каналы                                   : 6 каналов
Расположение каналов                     : Front: L C R, Side: L R, LFE
Частота                                  : 48,0 КГц
Частота кадров                           : 31,250 кадров/сек (1536 spf)
Метод сжатия                             : С потерями
Размер потока                            : 627 Мбайт (8%)
Язык                                     : Russian
Default                                  : Да
Forced                                   : Нет

Меню
00:00:00.000                             : en:00:00:00.000
00:16:08.509                             : en:00:16:08.509
00:34:27.607                             : en:00:34:27.607
00:50:01.207                             : en:00:50:01.207
01:08:12.964                             : en:01:08:12.964
01:26:22.427                             : en:01:26:22.427
01:39:57.700                             : en:01:39:57.700
01:57:43.056                             : en:01:57:43.056




Скриншоты:
[+] Всего файлов в раздаче - 1:
Valerian.and.the.City.of.a.Thousand.Planets.(2017).BDRip.1080p.MegaPeer.(qqss44).mkv7.78 GB

Текущая раздача:
ДатаКомментарии    РазмерПиры
2017-12-22 U Валериан и город тысячи планет / Valerian and the City of a Thousand Planets (2017) BDRip 1080p от qqss44 & MegaPeer | Лицензия | Локализованная версия 7.78 GB ↑ 262 ↓ 179

Показать еще раздачи по запросу валериан:
2018-01-26 U Валериан и город тысячи планет / Valerian and the City of a Thousand Planets (2017) BDRip 720p от NNNB | 60 fps | NOR-Transfer | Лицензия 5.92 GB ↑ 51 ↓ 34
2018-01-20 U Валериан и город тысячи планет / Valerian and the City of a Thousand Planets (2017) BDRip 1080p от HELLYWOOD | NOR-Transfer | Лицензия 1К9.54 GB ↑ 77 ↓ 22
2018-01-10 U Валериан и город тысячи планет / Valerian and the City of a Thousand Planets (2017) BDRip 1080p | NOR-Transfer | 60 fps 20.20 GB ↑ 46 ↓ 25
2018-01-06 U Валериан и город тысячи планет / Valerian and the City of a Thousand Planets (2017) BDRip-HEVC 2160p от HEVC CLUB | 4K | HDR | Лицензия 13.69 GB ↑ 170 ↓ 71
2018-01-06 U Валериан и город тысячи планет / Valerian and the City of a Thousand Planets (2017) BDRip-HEVC 1080p от HEVC CLUB | Локализованная версия | Лицензия 6.19 GB ↑ 64 ↓ 29
2018-01-04 U Валериан и город тысячи планет / Valerian and the City of a Thousand Planets (2017) BDRip 720p от KinoGadget | iPad | Лицензия 2.74 GB ↑ 78 ↓ 25
2018-01-02 U Валериан и город тысячи планет / Valerian and the City of a Thousand Planets (2017) BDRip-AVC от New-Team | Лицензия 2К1.48 GB ↑ 164 ↓ 49

Отзывы
Зарегистрируйтесь чтобы добавить комментарий.
Обратная связь
Copyleft ©