↑↓Torrent.by
Поиск
Логин: Регистрация
Пароль: Восстановить пароль
Загрузка...

Следы на воде (2017) DVDRip-AVC

Скачать sledy-na-vode-2017-dvdrip-avc.torrent
U Магнитная ссылка Размер: 1.66 GB Раздают: 154 Качают: 71 Добавлен: 2017-12-26 07:12:35
Следы на воде (2017) DVDRip-AVC

Название: Следы на воде
Год выхода: 2017
Жанр: Драма, исторический
Режиссер: Александр Анисимов
В ролях: Артём Курень, Пётр Юрченков, Вероника Пляшкевич, Сергей Юревич, Татьяна Чердынцева, Анатолий Терпицкий, Игорь Денисов, Игорь Сигов, Виктор Манаев, Евгений Никитин, Андрей Кривецкий, Валерий Зеленский, Дмитрий Пустильник, Зоя Белохвостик, Сергей Савенков, Геннадий Фомин

О фильме:
Художественная реконструкция реальных событий, рассказывающих о борьбе белорусской милиции с бандитизмом в первые послевоенные годы.

1946 год. Фронтовик-разведчик, старший лейтенант Смолич прибывает в городок Поречье на усиление местной милиции: в западных районах Беларуси банды терроризируют население. Особенно лютуют бандиты таинственного Фрейшюца, бывшего пособника фашистов. Смолич и начальник уголовного розыска Крикунов должны обезвредить неуловимого врага. Однако план милицейской операции внезапно оказывается под угрозой из-за утечки информации. Выясняется, что в отделении милиции есть предатель…

Страна: Беларусь
Студия: Кинокомпания "Беларусьфильм"
Продолжительность: 01:36:00
Перевод: Не требуется

Файл
Кодек: H264
Качество: DVDRip-AVC
Видео: 2 207 kb/s, high L4.1, yuv420p, 700x430
Звук: ac3, 48000 Hz, stereo, 224 kb/s
Язык: русский

Семпл


[+] MediaInfo
General
Unique ID                      : 323316376385844226104696748576064561757 (0xF33C78159383E103F230F76BABF6625D)
Complete name                  : D:Следы на воде.2017.DVDRip-AVC.mkv
Format                         : Matroska
Format version                 : Version 4 / Version 2
File size                      : 1.66 GiB
Duration                       : 1 h 36 min
Overall bit rate mode          : Variable
Overall bit rate               : 2 481 kb/s
Encoded date                   : UTC 2017-12-25 15:10:16
Writing application            : Lavf58.2.100
Writing library                : Lavf58.2.100
ErrorDetectionType             : Per level 1

Video
ID                             : 1
Format                         : AVC
Format/Info                    : Advanced Video Codec
Format profile                 : High@L4.1
Format settings                : CABAC / 4 Ref Frames
Format settings, CABAC         : Yes
Format settings, RefFrames     : 4 frames
Codec ID                       : V_MPEG4/ISO/AVC
Duration                       : 1 h 36 min
Bit rate mode                  : Variable
Bit rate                       : 2 207 kb/s
Maximum bit rate               : 24.0 Mb/s
Width                          : 700 pixels
Height                         : 430 pixels
Display aspect ratio           : 2.35:1
Frame rate mode                : Constant
Frame rate                     : 25.000 FPS
Color space                    : YUV
Chroma subsampling             : 4:2:0
Bit depth                      : 8 bits
Scan type                      : Progressive
Bits/(Pixel*Frame)             : 0.293
Stream size                    : 1.48 GiB (89%)
Writing library                : Lavc58.3.103 nvenc_h264
Default                        : Yes
Forced                         : No

Audio
ID                             : 2
Format                         : AC-3
Format/Info                    : Audio Coding 3
Format settings, Endianness    : Big
Codec ID                       : A_AC3
Duration                       : 1 h 36 min
Bit rate mode                  : Constant
Bit rate                       : 224 kb/s
Channel(s)                     : 2 channels
Channel positions              : Front: L R
Sampling rate                  : 48.0 kHz
Frame rate                     : 31.250 FPS (1536 SPF)
Bit depth                      : 16 bits
Compression mode               : Lossy
Stream size                    : 154 MiB (9%)
Service kind                   : Complete Main
Default                        : Yes
Forced                         : No



Скриншоты:
[+] Всего файлов в раздаче - 1:
Следы на воде.2017.DVDRip-AVC.mkv1.66 GB

Текущая раздача:
ДатаКомментарии    РазмерПиры
2017-12-26 U Следы на воде (2017) DVDRip-AVC 1.66 GB ↑ 154 ↓ 71

Показать еще раздачи по запросу следы:
2018-01-10 U Следы на воде (2017) HDTVRip-AVC от ExKinoRay 746.05 MB ↑ 62 ↓ 10
2018-01-10 U Следы на воде (2017) HDTVRip от MegaPeer 1.46 GB ↑ 117 ↓ 32
2017-11-06 U Следы на воде (2017) SATRip от Files-x 1К1.37 GB ↑ 608 ↓ 279
2017-11-06 U Следы на воде (2017) SATRip-AVC от Files-x 1.37 GB ↑ 412 ↓ 252
2017-04-24 U Арии. Следы белых богов (2017) SATRip от Generalfilm 1.36 GB ↑ 361 ↓ 0
2016-02-16 U Священный альманах. Следы жадности (2015) PC 568.14 MB ↑ 270 ↓ 60
2013-09-29 U Следы апостолов [01-04 из 04] (2013) SATRip 2.25 GB ↑ 452 ↓ 36

Отзывы
Зарегистрируйтесь чтобы добавить комментарий.
Обратная связь
Copyleft ©