↑↓Torrent.by
Поиск
Логин: Регистрация
Пароль: Восстановить пароль
Загрузка...

My Little Pony в кино / My Little Pony: The Movie (2017) WEB-DL 1080p | iTunes

Скачать my-little-pony-v-kino-the-movie-2017-web-dl-1080p-itunes.torrent
U Магнитная ссылка Размер: 3.42 GB Раздают: 46 Качают: 20 Добавлен: 2017-12-26 15:49:02
My Little Pony в кино / My Little Pony: The Movie (2017) WEB-DL 1080p | iTunes

Название: My Little Pony в кино
Оригинальное название: My Little Pony: The Movie
Год выхода: 2017
Жанр: Мультфильм, мюзикл, фэнтези, комедия, приключения, семейный
Режиссер: Джейсон Тиссен
В ролях: Тара Стронг, Эшли Болл, Андреа Либман, Табита Сен-Жермен, Кэти Уэслак, Эмили Блант, Кристин Ченоуэт, Лив Шрайбер, Майкл Пенья, Сиа

О фильме: Король Шторм хочет лишить пони магии и захватывает Кантерлот. Под угрозой будущее всей Эквестрии! Чтобы остановить злодея, пони покидают родные края и отправляются в путешествие, полное чудес и опасностей. Им предстоит покорить волшебные горы, погрузиться в подводные миры и даже оказаться на летучем пиратском корабле!

Страна: Канада, США
Студия: Allspark Pictures, DHX Media, Hasbro Studios, Lionsgate
Продолжительность: 01:39:07
Перевод: Дублированный ~ iTunes

Файл
Кодек: MPEG-4 AVC
Качество: WEB-DL 1080p
Видео: 1920x806, 4551kb/s, 24.000fps
Звук: 384kb/s, 6ch, 48000kHz, AC3 [RUS] | iTunes
Субтитры: Отсутствуют


[+] MI

Формат                                   : Matroska
Версия формата                           : Version 2
Размер файла                             : 3,42 Гбайт
Продолжительность                        : 1 ч. 39 м.
Общий поток                              : 4936 Кбит/сек
Дата кодирования                         : UTC 2017-12-24 15:31:50
Программа кодирования                    : mkvmerge v8.3.0 ('Over the Horizon') 64bit
Библиотека кодирования                   : libebml v1.3.1 + libmatroska v1.4.2

Видео
Идентификатор                            : 1
Формат                                   : AVC
Формат/Информация                        : Advanced Video Codec
Профиль формата                          : High@L4
Настройки формата                        : CABAC / 5 Ref Frames
Параметр CABAC формата                   : Да
Параметр RefFrames формата               : 5 кадров
Идентификатор кодека                     : V_MPEG4/ISO/AVC
Продолжительность                        : 1 ч. 39 м.
Битрейт                                  : 4551 Кбит/сек
Ширина                                   : 1920 пикселей
Высота                                   : 806 пикселей
Соотношение сторон                       : 2,40:1
Режим частоты кадров                     : Постоянный
Частота кадров                           : 24,000 кадра/сек
Цветовое пространство                    : YUV
Субдискретизация насыщенности            : 4:2:0
Битовая глубина                          : 8 бит
Тип развёртки                            : Прогрессивная
Бит/(Пиксели*Кадры)                      : 0.123
Размер потока                            : 3,15 Гбайт (92%)
Язык                                     : English
Default                                  : Да
Forced                                   : Нет
Цветовой диапазон                        : Limited
Основные цвета                           : BT.709
Характеристики трансфера                 : BT.709
Коэффициенты матрицы                     : BT.709

Аудио
Идентификатор                            : 2
Формат                                   : AC-3
Формат/Информация                        : Audio Coding 3
Параметр Endianness формата              : Big
Идентификатор кодека                     : A_AC3
Продолжительность                        : 1 ч. 39 м.
Вид битрейта                             : Постоянный
Битрейт                                  : 384 Кбит/сек
Каналы                                   : 6 каналов
Расположение каналов                     : Front: L C R, Side: L R, LFE
Частота                                  : 48,0 КГц
Частота кадров                           : 31,250 кадров/сек (1536 SPF)
Битовая глубина                          : 16 бит
Метод сжатия                             : С потерями
Размер потока                            : 272 Мбайт (8%)
Язык                                     : Russian
Default                                  : Да
Forced                                   : Нет

Меню
00:00:00.000                             : en:Глава 1
00:05:20.666                             : en:Глава 2
00:12:00.332                             : en:Глава 3
00:17:50.832                             : en:Глава 4
00:22:55.582                             : en:Глава 5
00:29:45.332                             : en:Глава 6
00:36:21.623                             : en:Глава 7
00:42:05.289                             : en:Глава 8
00:47:11.080                             : en:Глава 9
00:55:13.080                             : en:Глава 10
01:01:01.705                             : en:Глава 11
01:08:50.121                             : en:Глава 12
01:15:41.579                             : en:Глава 13
01:21:39.412                             : en:Глава 14
01:27:16.578                             : en:Глава 15



Скриншоты:
[+] Всего файлов в раздаче - 1:
My Little Pony The Movie 2017 [WEB-DL 1080p] iTunes.mkv3.42 GB

Отзывы
Зарегистрируйтесь чтобы добавить комментарий.
Обратная связь
Copyleft ©