↑↓Torrent.by
Поиск
Логин: Регистрация
Пароль: Восстановить пароль
Загрузка...

Обнаженная со скрипкой (1959) DVDRip-AVC от New-Team

Скачать obnazhennaya-so-skripkoy-1959-dvdrip-avc-ot-new-team.torrent
U Магнитная ссылка Размер: 1.46 GB Раздают: 54 Качают: 14 Добавлен: 2017-12-27 13:55:52
Обнаженная со скрипкой (1959) DVDRip-AVC от New-Team

Мы "В КОНТАКТЕ"

Страна: СССР
Производство: Главная редакция литературно-драматических программ Гостелерадио СССР

Жанр:  комедия, экранизация, фильм-спектакль
Год выпуска: 1959
Продолжительность: 02:48:50

Перевод: Не требуется
Cубтитры: нет
Оригинальная аудиодорожка: русский

Режиссер: Валентин Плучек, Виктор Рыжков

В ролях:
Георгий Менглет, Александр Денисов (II), Ольга Зверева, Нина Архипова, Владимир Ушаков, Галина Степанова, Валентина Токарская, Ольга Аросева, Анатолий Папанов, Георгий Иванов, Евгений Весник, Георгий Доре...
Об актёрах подробней

Описание:
Телеверсия спектакля Московского Театра сатиры. По одноименной комедии английского писателя Н. Кауарда.
Англия. 1950-е годы. Умер знаменитый художник Поль Сородэн. Его слуга Себастьян, которому Поль доверял, раскрывает перед родными и близкими умершего тайну: все картины Сородэна были написаны его любовницами и четырнадцатилетним сыном Себастьяна. По словам слуги, это был крестовый поход художника против лжи в искусстве.

[url=http://www.imdb.com/title/tt5850038/" target="_blank">


[+] MediaInfo

Общее
Полное имя                               : Obnazhennaya.so.skripkoy.1959.DVDRip-AVC_[New-team]_by_AVP_Studio.mkv
Формат                                   : Matroska
Версия формата                           : Version 2
Размер файла                             : 1,46 Гбайт
Продолжительность                        : 1 ч. 48 м.
Общий поток                              : 1919 Кбит/сек
Дата кодирования                         : UTC 2017-12-25 14:27:06
Программа кодирования                    : mkvmerge v6.1.0 ('Old Devil') built on Mar  4 2013 09:10:42
Библиотека кодирования                   : libebml v1.3.0 + libmatroska v1.4.0

Видео
Идентификатор                            : 1
Формат                                   : AVC
Формат/Информация                        : Advanced Video Codec
Профиль формата                          : High@L4.1
Настройки формата                        : CABAC / 10 Ref Frames
Параметр CABAC формата                   : Да
Параметр RefFrames формата               : 10 кадров
Идентификатор кодека                     : V_MPEG4/ISO/AVC
Продолжительность                        : 1 ч. 48 м.
Битрейт                                  : 1725 Кбит/сек
Ширина                                   : 688 пикселей
Высота                                   : 570 пикселей
Соотношение сторон                       : 4:3
Режим частоты кадров                     : Постоянный
Частота кадров                           : 25,000 кадров/сек
Цветовое пространство                    : YUV
Субдискретизация насыщенности            : 4:2:0
Битовая глубина                          : 8 бит
Тип развёртки                            : Прогрессивная
Бит/(Пиксели*Кадры)                      : 0.176
Размер потока                            : 1,28 Гбайт (88%)
Библиотека кодирования                   : x264 core 130 r2273 b3065e6
Настройки программы                      : cabac=1 / ref=10 / deblock=1:-2:-1 / analyse=0x3:0x113 / me=umh / subme=10 / psy=1 / psy_rd=1.00:0.00 / mixed_ref=1 / me_range=32 / chroma_me=1 / trellis=2 / 8x8dct=1 / cqm=0 / deadzone=21,11 / fast_pskip=1 / chroma_qp_offset=-2 / threads=6 / lookahead_threads=1 / sliced_threads=0 / nr=0 / decimate=0 / interlaced=0 / bluray_compat=0 / constrained_intra=0 / bframes=8 / b_pyramid=2 / b_adapt=2 / b_bias=0 / direct=3 / weightb=1 / open_gop=0 / weightp=2 / keyint=250 / keyint_min=25 / scenecut=40 / intra_refresh=0 / rc=2pass / mbtree=0 / bitrate=1725 / ratetol=1.0 / qcomp=0.60 / qpmin=0 / qpmax=69 / qpstep=4 / cplxblur=20.0 / qblur=0.5 / ip_ratio=1.40 / pb_ratio=1.30 / aq=1:1.00
Default                                  : Да
Forced                                   : Нет

Аудио
Идентификатор                            : 2
Формат                                   : AC-3
Формат/Информация                        : Audio Coding 3
Идентификатор кодека                     : A_AC3
Продолжительность                        : 1 ч. 48 м.
Вид битрейта                             : Постоянный
Битрейт                                  : 192 Кбит/сек
Каналы                                   : 2 канала
Расположение каналов                     : Front: L R
Частота                                  : 48,0 КГц
Частота кадров                           : 31,250 кадров/сек (1536 SPF)
Битовая глубина                          : 16 бит
Метод сжатия                             : С потерями
Размер потока                            : 149 Мбайт (10%)
Default                                  : Да
Forced                                   : Нет



Скриншоты:
[+] Всего файлов в раздаче - 1:
Obnazhennaya.so.skripkoy.1959.DVDRip-AVC_[New-team]_by_AVP_Studio.mkv1.46 GB

Текущая раздача:
ДатаКомментарии    РазмерПиры
2017-12-27 U Обнаженная со скрипкой (1959) DVDRip-AVC от New-Team 1 К 1.46 GB ↑ 54 ↓ 14

Показать еще раздачи по запросу обнаженная:
2017-10-27 U Кушкин Дмитрий - Обнаженная медицина. Рассказы дерматовенеролога о суровых врачах и «везучих» пациентах (2017) FB2 1.80 MB ↑ 558 ↓ 47
2017-08-20 U Обнаженная / Naked (1993) BDRip от Koenig | P2 1.45 GB ↑ 70 ↓ 15
2016-06-06 U Обнажённая кобыла / Una cavalla tutta nuda (1972) WEBRip От Cmert | L1 743.31 MB ↑ 284 ↓ 82
2015-11-13 U Обнажённая / Bare (2015) WEB-DL 720p | L1 1К2.91 GB ↑ 121 ↓ 50
2015-11-12 U Обнажённая / Bare (2015) WEB-DLRip | L1 1.37 GB ↑ 319 ↓ 247
2015-11-12 U Обнажённая / Bare (2015) WEB-DL 720p | Sub 2.74 GB ↑ 215 ↓ 164
2015-11-12 U Обнажённая / Bare (2015) WEB-DLRip | Sub 1.45 GB ↑ 388 ↓ 156

Отзывы
edgar
Только-только вспоминали. Отличнейший спектакль!

Зарегистрируйтесь чтобы добавить комментарий.
Обратная связь
Copyleft ©