↑↓Torrent.by
Поиск
Логин: Регистрация
Пароль: Восстановить пароль
Загрузка...

Беседа с Евгением Федоровым (20.12.2017) WEBRip 1080p

Скачать beseda-s-evgeniem-fedorovym-20-12-2017-webrip-1080p.torrent
U Магнитная ссылка Размер: 3.64 GB Раздают: 105 Качают: 1 Добавлен: 2017-12-27 21:54:07
Беседа с Евгением Федоровым (20.12.2017) WEBRip



Производство: Телевидение Национально-Освободительного Движения
Жанр: Политика

Участники: Денис Ганич, Евгений Федоров

Описание:
Активист Национально-Освободительного Движения Денис Ганич встретился с депутатом Государственной Думы России, координатором НОД Евгением Федоровым. Темы беседы: резолюция Генассамблеи ООН по Крыму;
что дает России восстановление международного права на территории бывшего СССР;
новая стратегия национальной безопасности США;
что такое оккупация и внешнее управление;
термин «однополярный мир»;
как пишут и утверждают российские законы;
что делает и как работает консалтинг(советники);
как работает цензура в российских СМИ: Мизулина в программе «Вечер с Владимиром Соловьевым»;
зачем спортсменов склоняют ехать на Олимпиаду под белым флагом.

Продолжительность: 02:00:09
Качество видео: WEBRip

Видео: AVC/H.264, 1920x1080 (16:9), ~4000 Kbps
Аудио: AC3, 2 ch, 256 Kbps

[+] Mediainfo:

General
Unique ID                   : 8486924172104642201133087238289158390 (0x66285AAF58C9D7E1EA1FFDA5D20F0F6)
Complete name               : D:\Film\Беседа с Евгением Федоровым 20.12.17.mkv
Format                      : Matroska
Format version              : Version 4 / Version 2
File size                   : 3.64 GiB
Duration                    : 2 h 0 min
Overall bit rate            : 4 337 kb/s
Encoded date                : UTC 2017-12-27 16:24:38
Writing application         : mkvmerge v19.0.0 ('Brave Captain') 64-bit
Writing library             : libebml v1.3.5 + libmatroska v1.4.8
Cover                       : Yes
Attachments                 : cover.png

Video
ID                          : 1
Format                      : AVC
Format/Info                 : Advanced Video Codec
Format profile              : High@L4
Format settings             : CABAC / 4 Ref Frames
Format settings, CABAC      : Yes
Format settings, RefFrames  : 4 frames
Codec ID                    : V_MPEG4/ISO/AVC
Duration                    : 2 h 0 min
Bit rate                    : 4 082 kb/s
Width                       : 1 920 pixels
Height                      : 1 080 pixels
Display aspect ratio        : 16:9
Frame rate mode             : Constant
Frame rate                  : 25.000 FPS
Color space                 : YUV
Chroma subsampling          : 4:2:0
Bit depth                   : 8 bits
Scan type                   : Progressive
Bits/(Pixel*Frame)          : 0.079
Stream size                 : 3.42 GiB (94%)
Writing library             : x264 core 152 r2851 ba24899
Encoding settings           : cabac=1 / ref=4 / deblock=1:2:2 / analyse=0x3:0x113 / me=hex / subme=2 / psy=1 / psy_rd=1.00:0.00 / mixed_ref=1 / me_range=16 / chroma_me=1 / trellis=0 / 8x8dct=1 / cqm=0 / deadzone=21,11 / fast_pskip=1 / chroma_qp_offset=0 / threads=34 / lookahead_threads=8 / sliced_threads=0 / nr=0 / decimate=1 / interlaced=0 / bluray_compat=0 / constrained_intra=0 / bframes=0 / weightp=2 / keyint=75 / keyint_min=7 / scenecut=0 / intra_refresh=0 / rc_lookahead=40 / rc=abr / mbtree=1 / bitrate=4082 / ratetol=1.0 / qcomp=0.60 / qpmin=10 / qpmax=51 / qpstep=4 / ip_ratio=0.91 / aq=1:1.00
Language                    : Russian
Default                     : Yes
Forced                      : No

Audio
ID                          : 2
Format                      : AC-3
Format/Info                 : Audio Coding 3
Format settings, Endianness : Big
Codec ID                    : A_AC3
Duration                    : 2 h 0 min
Bit rate mode               : Constant
Bit rate                    : 256 kb/s
Channel(s)                  : 2 channels
Channel positions           : Front: L R
Sampling rate               : 48.0 kHz
Frame rate                  : 31.250 FPS (1536 SPF)
Bit depth                   : 16 bits
Compression mode            : Lossy
Stream size                 : 220 MiB (6%)
Language                    : Russian
Service kind                : Complete Main
Default                     : Yes
Forced                      : No


Скриншоты:
     
[+] Всего файлов в раздаче - 1:
Беседа с Евгением Федоровым 20.12.17.mkv3.64 GB

Текущая раздача:
ДатаКомментарии    РазмерПиры
2017-12-27 U Беседа с Евгением Федоровым (20.12.2017) WEBRip 1080p 3.64 GB ↑ 105 ↓ 1

Похожие раздачи по запросу - беседа:
2017-09-22 U Беседа с Евгением Федоровым (19.09.2017) WEBRip 720p 505.72 MB ↑ 108 ↓ 0

Отзывы
Зарегистрируйтесь чтобы добавить комментарий.
Обратная связь
Copyleft ©