↑↓Torrent.by
Поиск
Логин: Регистрация
Пароль: Восстановить пароль
Загрузка...

Ералаш в кино (2017) WEB-DLRip-AVC от ExKinoRay

Скачать eralash-v-kino-2017-web-dlrip-avc-ot-exkinoray.torrent
U Магнитная ссылка Размер: 1.59 GB Раздают: 298 Качают: 119 Добавлен: 2017-12-29 18:58:01
Ералаш в кино (2017) WEB-DLRip-AVC от ExKinoRay

Название: Ералаш в кино
Год выхода: 2017
Жанр:  семейный, детский, приключения, комедия
Режиссер: Илья Белостоцкий, Лана Чернобурова, Виктория Фанасютина
В ролях: Валерий Гаркалин, Андрей Леонов, Наталья Варлей, Михаил Полицеймако, Елена Медведева, Николай Валуев, Ольга Картункова, Наталия Медведева, Татьяна Орлова, Светлана Пермякова

О фильме: Самые новые сюжеты киножурнала «Ералаш» — теперь на большом экране. «Ералаш» — единственный юмористический сериал, который учит светлому и доброму, ведь его главные герои — дети. Мальчишки, девчонки и их родители — не пропустите такое событие! Вы увидите смешные и знакомые каждому истории из современного детства.

Выпущено: Россия
Продолжительность: 01:40:08
Перевод: не требуется

Файл
Формат: MKV
Качество: WEB-DLRip-AVC
Видео: MPEG-4 AVC, 1024x576 (16:9), 25.000 fps, ~2082 kbps avg, 0.141 bit/pixel
Аудио: 48 kHz, AC3 Dolby Digital, 2.0 ch, ~192 kbps

Релиз:

Автор релиза:


[+] МИ
General
Unique ID                                : 171594904198894079109778869596003238861 (0x8117F9F7528B4E12853CF95D031403CD)
Complete name                            : D:Eralash.v.kino.2017.AVC.ExKinoRay.mkv
Format                                   : Matroska
Format version                           : Version 2
File size                                : 1.59 GiB
Duration                                 : 1 h 40 min
Overall bit rate                         : 2 274 kb/s
Movie name                               : Ералаш в кино 2017 from ExKinoRay
Encoded date                             : UTC 2017-12-29 12:14:45
Writing application                      : mkvmerge v5.6.0 ('Kenya Kane') built on May 27 2012 16:44:04
Writing library                          : libebml v1.2.3 + libmatroska v1.3.0

Video
ID                                       : 1
Format                                   : AVC
Format/Info                              : Advanced Video Codec
Format profile                           : High@L4.1
Format settings, CABAC                   : Yes
Format settings, ReFrames                : 10 frames
Codec ID                                 : V_MPEG4/ISO/AVC
Duration                                 : 1 h 40 min
Bit rate                                 : 2 082 kb/s
Width                                    : 1 024 pixels
Height                                   : 576 pixels
Display aspect ratio                     : 16:9
Frame rate mode                          : Constant
Frame rate                               : 25.000 FPS
Color space                              : YUV
Chroma subsampling                       : 4:2:0
Bit depth                                : 8 bits
Scan type                                : Progressive
Bits/(Pixel*Frame)                       : 0.141
Stream size                              : 1.42 GiB (90%)
Title                                    : Enigma
Writing library                          : x264 core 152 r2851 ba24899
Encoding settings                        : cabac=1 / ref=10 / deblock=1:-2:-2 / analyse=0x3:0x113 / me=umh / subme=10 / psy=1 / psy_rd=1.00:0.05 / mixed_ref=1 / me_range=32 / chroma_me=1 / trellis=2 / 8x8dct=1 / cqm=0 / deadzone=21,11 / fast_pskip=0 / chroma_qp_offset=-3 / threads=12 / lookahead_threads=3 / sliced_threads=0 / nr=0 / decimate=0 / interlaced=0 / bluray_compat=0 / constrained_intra=0 / bframes=12 / b_pyramid=2 / b_adapt=2 / b_bias=0 / direct=3 / weightb=1 / open_gop=0 / weightp=2 / keyint=250 / keyint_min=25 / scenecut=40 / intra_refresh=0 / rc_lookahead=40 / rc=2pass / mbtree=0 / bitrate=2082 / ratetol=1.0 / qcomp=0.60 / qpmin=0 / qpmax=51 / qpstep=4 / cplxblur=20.0 / qblur=0.5 / vbv_maxrate=50000 / vbv_bufsize=62500 / nal_hrd=none / filler=0 / ip_ratio=1.40 / pb_ratio=1.30 / aq=1:1.00
Language                                 : English
Default                                  : Yes
Forced                                   : No
Color range                              : Limited
Color primaries                          : BT.709
Transfer characteristics                 : BT.709
Matrix coefficients                      : BT.709

Audio
ID                                       : 2
Format                                   : AC-3
Format/Info                              : Audio Coding 3
Mode extension                           : CM (complete main)
Format settings, Endianness              : Big
Codec ID                                 : A_AC3
Duration                                 : 1 h 40 min
Bit rate mode                            : Constant
Bit rate                                 : 192 kb/s
Channel(s)                               : 2 channels
Channel positions                        : Front: L R
Sampling rate                            : 48.0 kHz
Frame rate                               : 31.250 FPS (1536 spf)
Compression mode                         : Lossy
Stream size                              : 138 MiB (8%)
Language                                 : Russian
Default                                  : Yes
Forced                                   : No




Скриншоты:
[+] Всего файлов в раздаче - 1:
Eralash.v.kino.2017.AVC.ExKinoRay.mkv1.59 GB

Текущая раздача:
ДатаКомментарии    РазмерПиры
2017-12-29 U Ералаш в кино (2017) WEB-DLRip-AVC от ExKinoRay 1.59 GB ↑ 298 ↓ 119

Показать еще раздачи по запросу ералаш:
2018-01-08 U Новогодний Ералаш [07.01] (2018) HDTV 1080i от GeneralFilm 469.21 MB ↑ 70 ↓ 18
2018-01-07 U Новогодний Ералаш [07.01] (2018) HDTVRip от GeneralFilm 150.12 MB ↑ 120 ↓ 25
2018-01-03 U Новогодний Ералаш [02.01] (2018) HDTV 1080i от GeneralFilm 961.83 MB ↑ 99 ↓ 29
2018-01-02 U Новогодний Ералаш [02.01] (2018) HDTVRip от GeneralFilm 300.31 MB ↑ 258 ↓ 49
2017-12-29 U Ералаш в кино (2017) WEB-DLRip-AVC от ExKinoRay 746.34 MB ↑ 336 ↓ 115
2017-12-28 U Ералаш в кино (2017) WEB-DL 1080p 3.71 GB ↑ 1015 ↓ 544
2016-01-10 U Новый Ералаш [Эфир 09.01.2016] (2015) HDTVRip от GeneralFilm 201.84 MB ↑ 120 ↓ 9

Отзывы
Зарегистрируйтесь чтобы добавить комментарий.
Обратная связь
Copyleft ©