↑↓Torrent.by
Поиск
Логин: Регистрация
Пароль: Восстановить пароль
Загрузка...

Дыши ради нас / Breathe (2017) HDRip-AVC от Kaztorrents | iTunes

Скачать dyshi-radi-nas-breathe-2017-hdrip-avc-ot-kaztorrents-itunes.torrent
U Магнитная ссылка Размер: 1.47 GB Раздают: 87 Качают: 26 Добавлен: 2017-12-31 09:18:03
Дыши ради нас / Breathe (2017) HDRip-AVC от Kaztorrents | iTunes

✦ Дыши ради нас / Breathe ✦

Информация о фильме:
❖ Год выпуска: 2017
❖ Страна: Великобритания
❖ Производство: The Imaginarium Studios
❖ Жанр: Драма, мелодрама, биография
❖ Перевод: Профессиональный (полное дублирование)  | [iTunes ]
❖  Продолжительность: 01:57:40

❖ Режиссер: Энди Серкис

❖ В ролях: Эндрю Гарфилд, Клер Фой, Эдвард Спелирс, Том Холландер, Дэвид Батлер, Бен Ллойд-Хьюз, Миранда Рэйсон, Камилла Разерфорд, Андре Джейкобс, Терри Нортон, Чарльз Стритер, Пенни Дауни, Амит Шах, Джонатан Хайд, Эмили Беван, Роджер Эштон-Гриффитс, Дэвид Уилмот, Патрик Годфри, Пикси, Хью Бонневилль, Лоррейн Эшборн, Рози Кавальеро, Джек Мэдигэн, Фрэнк Мэдигэн, Гарри Этвелл, Харриет Тернбулл, Гарри Маркус, Марина Бай, Тони Капрари, Орели Стрэттон, Стивен Мэнгэн, Адам Нилл

❖ Релиз:
❖ Автор рипа:  ProT1gR

Описание фильма:
Его манеры, настойчивость и великолепное чувство юмора с первого взгляда покорили неприступную Диану. После свадьбы молодожены отправляются в путешествие, где Робин тяжело заболевает. И теперь только любовь способна подарить ему вторую жизнь…

Технические данные файла:
❖  Качество: HDRip-AVC (Исх. BDRip 720p)
❖  Формат: MKV
❖  Видео: 1024x368(2.78:9), 23.976 fps, MPEG-4 AVC ~  1 400 kbps (0.155 bit/pixel)
❖  Аудио: AC3, 48.0 KHz, 6 ch, 384 kbps


[+] MI
General
Unique ID                      : 221299590058869006893207176689233991142 (0xA67CC02F05A52DCBBC4C15399C1C95E6)
Complete name                  : X:x264Breathe.[2017].HDRip.[Kaztorrents].mkv
Format                         : Matroska
Format version                 : Version 2
File size                      : 1.47 GiB
Duration                       : 1 h 57 min
Overall bit rate               : 1 786 kb/s
Encoded date                   : UTC 2017-12-30 16:41:22
Writing application            : mkvmerge v7.8.0 ('River Man') 32bit built on Apr  3 2015 12:11:22
Writing library                : libebml v1.3.1 + libmatroska v1.4.2

Video
ID                             : 1
Format                         : AVC
Format/Info                    : Advanced Video Codec
Format profile                 : High@L4
Format settings, CABAC         : Yes
Format settings, ReFrames      : 11 frames
Codec ID                       : V_MPEG4/ISO/AVC
Duration                       : 1 h 57 min
Bit rate                       : 1 400 kb/s
Width                          : 1 024 pixels
Height                         : 368 pixels
Display aspect ratio           : 2.783
Frame rate mode                : Constant
Frame rate                     : 23.976 (24000/1001) FPS
Color space                    : YUV
Chroma subsampling             : 4:2:0
Bit depth                      : 8 bits
Scan type                      : Progressive
Bits/(Pixel*Frame)             : 0.155
Stream size                    : 1.12 GiB (77%)
Writing library                : x264 core 146 r2538 121396c
Encoding settings              : cabac=1 / ref=11 / deblock=1:-3:-3 / analyse=0x3:0x113 / me=umh / subme=11 / psy=1 / psy_rd=1.00:0.00 / mixed_ref=1 / me_range=48 / chroma_me=1 / trellis=2 / 8x8dct=1 / cqm=0 / deadzone=21,11 / fast_pskip=0 / chroma_qp_offset=-2 / threads=6 / lookahead_threads=1 / sliced_threads=0 / nr=0 / decimate=0 / interlaced=0 / bluray_compat=0 / constrained_intra=0 / bframes=11 / b_pyramid=2 / b_adapt=2 / b_bias=0 / direct=3 / weightb=1 / open_gop=0 / weightp=2 / keyint=240 / keyint_min=23 / scenecut=40 / intra_refresh=0 / rc_lookahead=40 / rc=2pass / mbtree=0 / bitrate=1400 / ratetol=1.0 / qcomp=0.60 / qpmin=0 / qpmax=69 / qpstep=4 / cplxblur=20.0 / qblur=0.5 / vbv_maxrate=50000 / vbv_bufsize=62500 / nal_hrd=none / filler=0 / ip_ratio=1.40 / pb_ratio=1.30 / aq=1:1.10
Default                        : Yes
Forced                         : No

Audio
ID                             : 2
Format                         : AC-3
Format/Info                    : Audio Coding 3
Format settings, Endianness    : Big
Codec ID                       : A_AC3
Duration                       : 1 h 57 min
Bit rate mode                  : Constant
Bit rate                       : 384 kb/s
Channel(s)                     : 6 channels
Channel positions              : Front: L C R, Side: L R, LFE
Sampling rate                  : 48.0 kHz
Frame rate                     : 31.250 FPS (1536 spf)
Bit depth                      : 16 bits
Compression mode               : Lossy
Stream size                    : 323 MiB (22%)
Service kind                   : Complete Main
Default                        : Yes
Forced                         : No




Скриншоты:
[+] Всего файлов в раздаче - 1:
Breathe.[2017].HDRip.[Kaztorrents].mkv1.47 GB

Текущая раздача:
ДатаКомментарии    РазмерПиры
2017-12-31 U Дыши ради нас / Breathe (2017) HDRip-AVC от Kaztorrents | iTunes 1 К 1.47 GB ↑ 87 ↓ 26

Показать еще раздачи по запросу дыши:
2017-12-30 U Дыши ради нас / Breathe (2017) BDRip от MegaPeer | iTunes 1.41 GB ↑ 172 ↓ 112
2017-06-05 U Не дыши / Don't Breathe (2016) BDRip 720p от NNNB | D, A 4.37 GB ↑ 92 ↓ 23
2017-01-09 U Не дыши / Don't Breathe (2016) BDRip от HQCLUB | D | Лицензия 1.45 GB ↑ 91 ↓ 18
2017-01-09 U Не дыши / Don't Breathe (2016) BDRip-AVC от HELLYWOOD | Лицензия 2.18 GB ↑ 78 ↓ 26
2017-01-07 U Не дыши / Don't Breathe (2016) BDRip 1080p от New-Team & qqss44 | Лицензия 5.76 GB ↑ 127 ↓ 56
2017-01-07 U Не дыши / Don't Breathe (2016) BDRip от ExKinoRay | Лицензия 1.46 GB ↑ 180 ↓ 57
2017-01-06 U Не дыши / Don't Breathe (2016) BDRip 720p от ExKinoRay | D, A | Лицензия 4.69 GB ↑ 234 ↓ 50

Отзывы
kotova
Скучная мелодрама для любителей жанра.

Зарегистрируйтесь чтобы добавить комментарий.
Обратная связь
Copyleft ©