↑↓Torrent.by
Поиск
Логин: Регистрация
Пароль: Восстановить пароль
Загрузка...

Следопыт / Pathfinder (2007) HDRip-AVC от ExKinoRay | Director's Cut | D

Скачать sledopyt-pathfinder-2007-hdrip-avc-ot-exkinoray-director-s-cut-d.torrent
U Магнитная ссылка Размер: 745.99 MB Раздают: 80 Качают: 19 Добавлен: 2018-01-01 06:43:22
Следопыт / Pathfinder (2007) HDRip-AVC от ExKinoRay | Director's Cut | D

Название: Следопыт
Оригинальное название: Pathfinder
Год выхода: 2007
Жанр:  Приключения, драма, боевик
Режиссер: Маркус Ниспел
В ролях: Карл Урбан, Мун Бладгуд, Рассел Минс, Клэнси Браун, Джей Таваре, Натаниель Арканд, Ральф Мёллер, Кевин Лоринг, Вейн Чарльз Бэйкер, Мишель Траш

О фильме :
600 лет до открытия Америки Колумбом. Викинги пытаются переселиться в эти земли, уничтожив коренных жителей Северной Америки – индейцев. Во время набега маленький сын вождя оказывается брошенным отцом на растерзание врагу. Однако сердобольные индейцы принимают его в свое племя и дают ему имя Призрак. Через пятнадцать лет все племя Призрака оказывается уничтоженным после очередного набега викингов. Главный герой принимает решение отомстить за разоренное поселение и, тем самым, поставить точку в кровопролитной войне.

Страна: США
Студия: 20th Century Fox Film Corporation, Dune Entertainment, Major Studio Partners, Phoenix Pictures
Продолжительность: 01:47:11
Перевод: Профессиональный (полное дублирование)

Файл
Формат: MKV
Качество: HDRip-AVC
Видео: MPEG-4 AVC, 768x320, ~ 895 Кбит/с
Аудио:  AAC-LC, 2 ch, ~ 76 Кбит/с
Субтитры: Русские, английские

Релиз:


[+] MI
Общее
Уникальный идентификатор : 178361475010869795600424027248720767901 (0x862F2BAA2358D0E4A7335DF741566B9D)
Полное имя : D:MOVIESPathfinder.2007.ExKinoRay.mkv
Формат : Matroska
Версия формата : Version 4 / Version 2
Размер файла : 746 Мбайт
Продолжительность : 1 ч. 47 м.
Общий поток : 973 Кбит/сек
Дата кодирования : UTC 2017-12-31 05:24:26
Программа кодирования : mkvmerge v15.0.0 ('Duel with the Devil') 64-bit
Библиотека кодирования : libebml v1.3.5 + libmatroska v1.4.5

Видео
Идентификатор : 1
Формат : AVC
Формат/Информация : Advanced Video Codec
Профиль формата : High@L4.1
Параметр CABAC формата : Да
Параметр RefFrames формата : 10 кадров
Идентификатор кодека : V_MPEG4/ISO/AVC
Продолжительность : 1 ч. 47 м.
Битрейт : 895 Кбит/сек
Ширина : 768 пикселей
Высота : 320 пикселей
Соотношение сторон : 2,40:1
Режим частоты кадров : Постоянный
Частота кадров : 23,976 (24000/1001) кадра/сек
Цветовое пространство : YUV
Субдискретизация насыщенности : 4:2:0
Битовая глубина : 8 бит
Тип развёртки : Прогрессивная
Бит/(Пиксели*Кадры) : 0.152
Размер потока : 686 Мбайт (92%)
Библиотека кодирования : x264 core 152 r2851kMod ba24899
Настройки программы : cabac=1 / ref=10 / deblock=1:-3:-2 / analyse=0x3:0x133 / me=umh / subme=11 / psy=1 / fade_compensate=0.00 / psy_rd=1.00:0.10 / mixed_ref=1 / me_range=32 / chroma_me=1 / trellis=2 / 8x8dct=1 / cqm=0 / deadzone=21,11 / fast_pskip=0 / chroma_qp_offset=-3 / threads=6 / lookahead_threads=1 / sliced_threads=0 / nr=0 / decimate=0 / interlaced=0 / bluray_compat=0 / constrained_intra=0 / bframes=10 / b_pyramid=2 / b_adapt=2 / b_bias=0 / direct=3 / weightb=1 / open_gop=0 / weightp=2 / keyint=240 / keyint_min=23 / scenecut=40 / intra_refresh=0 / rc_lookahead=40 / rc=2pass / mbtree=1 / bitrate=895 / ratetol=1.0 / qcomp=0.60 / qpmin=0 / qpmax=69 / qpstep=4 / cplxblur=20.0 / qblur=0.5 / vbv_maxrate=50000 / vbv_bufsize=62500 / nal_hrd=none / filler=0 / ip_ratio=1.40 / aq=3:1.00
Default : Да
Forced : Нет

Аудио
Идентификатор : 2
Формат : AAC
Формат/Информация : Advanced Audio Codec
Профиль формата : LC
Идентификатор кодека : A_AAC
Продолжительность : 1 ч. 47 м.
Битрейт : 76,0 Кбит/сек
Каналы : 2 канала
Расположение каналов : Front: L R
Частота : 48,0 КГц
Частота кадров : 46,875 кадров/сек (1024 SPF)
Метод сжатия : С потерями
Задержка видео : 9 мс.
Размер потока : 58,3 Мбайт (8%)
Default : Да
Forced : Нет

Текст #1
Идентификатор : 3
Формат : UTF-8
Идентификатор кодека : S_TEXT/UTF8
Идентификатор кодека/Информация : UTF-8 Plain Text
Продолжительность : 1 ч. 38 м.
Битрейт : 8 бит/сек
ElementCount : 140
Размер потока : 6,15 Кбайт (0%)
Заголовок : Forced
Язык : Russian
Default : Да
Forced : Да

Текст #2
Идентификатор : 4
Формат : UTF-8
Идентификатор кодека : S_TEXT/UTF8
Идентификатор кодека/Информация : UTF-8 Plain Text
Продолжительность : 1 ч. 40 м.
Битрейт : 18 бит/сек
ElementCount : 321
Размер потока : 14,0 Кбайт (0%)
Язык : Russian
Default : Нет
Forced : Нет

Текст #3
Идентификатор : 5
Формат : UTF-8
Идентификатор кодека : S_TEXT/UTF8
Идентификатор кодека/Информация : UTF-8 Plain Text
Продолжительность : 1 ч. 41 м.
Битрейт : 18 бит/сек
ElementCount : 333
Размер потока : 13,5 Кбайт (0%)
Язык : Russian
Default : Нет
Forced : Нет

Текст #4
Идентификатор : 6
Формат : UTF-8
Идентификатор кодека : S_TEXT/UTF8
Идентификатор кодека/Информация : UTF-8 Plain Text
Продолжительность : 1 ч. 34 м.
Битрейт : 3 бит/сек
ElementCount : 94
Размер потока : 2,14 Кбайт (0%)
Заголовок : Forced
Язык : English
Default : Нет
Forced : Нет

Текст #5
Идентификатор : 7
Формат : UTF-8
Идентификатор кодека : S_TEXT/UTF8
Идентификатор кодека/Информация : UTF-8 Plain Text
Продолжительность : 1 ч. 40 м.
Битрейт : 11 бит/сек
ElementCount : 320
Размер потока : 8,26 Кбайт (0%)
Язык : English
Default : Нет
Forced : Нет

Текст #6
Идентификатор : 8
Формат : UTF-8
Идентификатор кодека : S_TEXT/UTF8
Идентификатор кодека/Информация : UTF-8 Plain Text
Продолжительность : 1 ч. 41 м.
Битрейт : 34 бит/сек
ElementCount : 308
Размер потока : 26,0 Кбайт (0%)
Язык : English
Default : Нет
Forced : Нет

Меню
00:00:00.000 : en:Main Titles/Marauders
00:02:06.335 : en:The Viking Ship
00:06:09.703 : en:Mystery Child
00:10:27.460 : en:Tribal Gathering
00:18:16.721 : en:Fear in the Forest
00:21:05.473 : en:Rampage
00:25:11.844 : en:Death by the Sword
00:27:46.456 : en:Bring Me His Head!
00:34:34.406 : en:Rescued
00:43:24.268 : en:Run and You May Live
00:47:37.730 : en:Two Wolves
00:55:36.959 : en:Sneak Attack
01:00:09.773 : en:Massacre
01:02:35.752 : en:In the Caves
01:10:17.797 : en:Torture
01:14:34.428 : en:Secret Plan
01:19:16.210 : en:Across the Lake
01:22:06.296 : en:Under the Ice
01:24:02.537 : en:Mountain Ledge
01:33:31.397 : en:I Know Who I Am
01:35:06.492 : en:Not One of Yours
01:37:40.229 : en:Spirit Prophecy
01:41:31.460 : en:Pathfinder
01:42:37.276 : en:End Titles



Скриншоты:
[+] Всего файлов в раздаче - 1:
Pathfinder.2007.ExKinoRay.mkv745.99 MB

Отзывы
Зарегистрируйтесь чтобы добавить комментарий.
Обратная связь
Copyleft ©