↑↓Torrent.by
Поиск
Логин: Регистрация
Пароль: Восстановить пароль
Загрузка...

Главная елка страны - Новогодний огонек на Интере (2017-18) SATRip-AVC

Скачать glavnaya-elka-strany-novogodniy-ogonek-na-intere-2017-18-satrip-avc.torrent
U Магнитная ссылка Размер: 2.09 GB Раздают: 81 Качают: 54 Добавлен: 2018-01-01 09:53:01
Главная елка страны - Новогодний огонек на Интере (2017-18) SATRip-AVC

Жанр:  Концерт
Год выпуска: 2017
Продолжительность: 02:17:02

Описание: 31 декабря в 22:30 "Интер" пригласит своих телезрителей на большой новогодний концерт "На ИНТЕРе - Главная елка страны". Чтобы вместе с любимыми артистами отметить настоящий, традиционный, наш Новый год.

Новогодняя ночь на "Интере" будет очень искренней и эмоциональной. Телеканал решил отойти от формата "огонька" и подарить зрителям яркий праздничный концерт. Съемки прошли в Национальной опере Украины, где царит особенная атмосфера  - торжественная, но при этом очень уютная. Такое шоу и такое количество звезд оперный театр вряд ли когда-либо видел: София Ротару, Наталия Могилевская, Таисия Повалий, Ани Лорак, Loboda, Олег Винник, Monatik, Ольга Полякова, Регина Тодоренко, Злата Огневич, Надежда Мейхер, Виталий Козловский и другие артисты.

Ведущие концерта - Анастасия Даугуле, Андрей Доманский и Андрей Данилевич - выступят не просто в роли конферансье, они будут говорить со зрителем, говорить о сегодняшнем ощущении праздника, вспоминать, ностальгировать, мечтать, удивлять. Они вспомнят любимые новогодние фильмы, песни и даже покажут фотографии из семейных альбомов.

В новогоднем концерте "Интера" прозвучат самые популярные песни 2017 года и любимые новогодние хиты разных лет. Среди них - музыкальные произведения из фильмов, культовые песни группы ABBA, Фрэнка Синатры и Джорджа Майкла, украинские народные песни и композиции, без которых не обходится ни одна новогодняя вечеринка.

Формат: MKV
Качество: SATRip
Видео кодек: H.264
Аудио кодек: AAC
Видео: H.264, ~2 000 Kbps, 720 x 400 (16:9), 25 fps
Аудио: AAC, 48000Hz, 2ch, 192 kbps
[+] MedaInfo
Complete name               : D:Inter_2018.mkv
Format                      : Matroska
Format version              : Version 4 / Version 2
File size                   : 2.09 GiB
Duration                    : 2 h 17 min
Overall bit rate            : 2 185 kb/s
Encoded date                : UTC 2018-01-01 00:29:34
Writing application         : mkvmerge v8.3.0 ('Over the Horizon') 64bit
Writing library             : libebml v1.3.1 + libmatroska v1.4.2

Video
ID                          : 2
Format                      : AVC
Format/Info                 : Advanced Video Codec
Format profile              : High@L3
Format settings, CABAC      : Yes
Format settings, ReFrames   : 3 frames
Format settings, GOP        : M=4, N=15
Codec ID                    : V_MPEG4/ISO/AVC
Duration                    : 2 h 17 min
Bit rate mode               : Constant
Bit rate                    : 2 000 kb/s
Width                       : 720 pixels
Height                      : 400 pixels
Display aspect ratio        : 16:9
Frame rate mode             : Constant
Frame rate                  : 25.000 FPS
Standard                    : NTSC
Color space                 : YUV
Chroma subsampling          : 4:2:0
Bit depth                   : 8 bits
Scan type                   : Progressive
Bits/(Pixel*Frame)          : 0.278
Stream size                 : 1.91 GiB (91%)
Language                    : English
Default                     : Yes
Forced                      : No
Color range                 : Limited
Color primaries             : BT.601 NTSC
Transfer characteristics    : BT.601
Matrix coefficients         : BT.601

Audio
ID                          : 1
Format                      : AAC
Format/Info                 : Advanced Audio Codec
Format profile              : LC
Codec ID                    : A_AAC
Duration                    : 2 h 17 min
Bit rate                    : 192 kb/s
Channel(s)                  : 2 channels
Channel positions           : Front: L R
Sampling rate               : 48.0 kHz
Frame rate                  : 46.875 FPS (1024 spf)
Compression mode            : Lossy
Stream size                 : 188 MiB (9%)
Language                    : English
Default                     : Yes
Forced                      : No



Скриншоты:
[+] Всего файлов в раздаче - 1:
Inter_2018.mkv2.09 GB

Текущая раздача:
ДатаКомментарии    РазмерПиры
2018-01-01 U Главная елка страны - Новогодний огонек на Интере (2017-18) SATRip-AVC 2.09 GB ↑ 81 ↓ 54

Показать еще раздачи по запросу главная:
2018-02-05 U Сборник - Главная дискотека февраля (2018) MP3 705.43 MB ↑ 258 ↓ 80
2017-09-27 U Твин Пикс: Главная концепция сериала / The main concept of the series Twin Peaks (2017) WEBRip 720p 855.00 MB ↑ 84 ↓ 31
2017-07-15 U Сборник - Главная дискотека июля 50/50 (2017) MP3 668.62 MB ↑ 188 ↓ 83
2017-05-01 U Сборник - Главная дискотека. Майская (2017) MP3 673.28 MB ↑ 298 ↓ 6
2017-03-13 U Сборник - Главная дискотека марта №2 (2017) MP3 671.19 MB ↑ 102 ↓ 33
2016-06-23 U Секретно. Сталину. Главная загадка Великой Отечественной (2016) HDTV 720p от GeneralFilm 656.98 MB ↑ 230 ↓ 1
2016-06-22 U Секретно. Сталину. Главная загадка Великой Отечественной войны (2016) HDTVRip от GeneralFilm 584.06 MB ↑ 428 ↓ 172

Отзывы
Зарегистрируйтесь чтобы добавить комментарий.
Обратная связь
Copyleft ©