↑↓Torrent.by
Поиск
Логин: Регистрация
Пароль: Восстановить пароль
Загрузка...

Бегущий по лезвию 2049 / Blade Runner 2049 (2017) WEB-DL 720p | iTunes

Скачать beguschiy-po-lezviyu-2049-blade-runner-2017-web-dl-720p-itunes.torrent
U Магнитная ссылка Размер: 5.53 GB Раздают: 399 Качают: 185 Добавлен: 2018-01-02 06:38:50
Бегущий по лезвию 2049 / Blade Runner 2049 (2017) WEB-DL 720p | iTunes

Название: Бегущий по лезвию 2049
Оригинальное название: Blade Runner 2049
Год выхода: 2017
Жанр: фантастика, триллер, драма, детектив
Режиссер: Дени Вильнёв
В ролях: Райан Гослинг, Харрисон Форд, Ана де Армас, Сильвия Хукс, Робин Райт, Маккензи Дэвис, Карла Юри, Ленни Джеймс, Дэйв Батиста, Джаред Лето

О фильме:
В недалеком будущем мир населен людьми и репликантами, созданными выполнять самую тяжелую работу. Работа офицера полиции Кей — держать репликантов под контролем в условиях нарастающего напряжения… Пока он случайно не становится обладателем секретной информации, которая ставит под угрозу существование всего человечества. Желая найти ключ к разгадке, Кей решает разыскать Рика Декарда, бывшего офицера специального подразделения полиции Лос-Анджелеса, который бесследно исчез много лет назад.

Страна: США, Великобритания, Венгрия, Канада
Продолжительность: 02:43:27
Перевод: Профессиональный (дублированный) iTunes

Файл
Формат: MKV
Видео: 1280x530 at 23.976 fps, MPEG-4 AVC, ~4071 kbps avg
Аудио#1: Russian: 48 kHz, AC3, 3/2 (L,C,R,l,r) + LFE ch, ~384.00 kbps avg
Аудио#2: English: 48 kHz, AC3, 3/2 (L,C,R,l,r) + LFE ch, ~384.00 kbps avg
Cубтитры: Russian (Forced, Full), English (Full)

Семпл


[+] MediaInfo
General
Unique ID                                : 204693890958211573754076054756771910250 (0x99FE9C01D5041A42B5366368AC86526A)
Complete name                            : Blade.Runner.2049.2017.720p.WEB-DL.Rus.Eng.mkv
Format                                   : Matroska
Format version                           : Version 2
File size                                : 5.53 GiB
Duration                                 : 2 h 43 min
Overall bit rate                         : 4 841 kb/s
Encoded date                             : UTC 2018-01-01 19:11:54
Writing application                      : mkvmerge v8.3.0 ('Over the Horizon') 64bit
Writing library                          : libebml v1.3.1 + libmatroska v1.4.2

Video
ID                                       : 1
Format                                   : AVC
Format/Info                              : Advanced Video Codec
Format profile                           : Main@L3.1
Format settings                          : 2 Ref Frames
Format settings, CABAC                   : No
Format settings, RefFrames               : 2 frames
Codec ID                                 : V_MPEG4/ISO/AVC
Duration                                 : 2 h 43 min
Bit rate                                 : 4 071 kb/s
Width                                    : 1 280 pixels
Height                                   : 530 pixels
Display aspect ratio                     : 2.40:1
Frame rate mode                          : Constant
Frame rate                               : 23.976 (23976/1000) FPS
Color space                              : YUV
Chroma subsampling                       : 4:2:0
Bit depth                                : 8 bits
Scan type                                : Progressive
Bits/(Pixel*Frame)                       : 0.250
Stream size                              : 4.65 GiB (84%)
Language                                 : English
Default                                  : Yes
Forced                                   : No
Color range                              : Limited
Color primaries                          : BT.709
Transfer characteristics                 : BT.709
Matrix coefficients                      : BT.709

Audio #1
ID                                       : 2
Format                                   : AC-3
Format/Info                              : Audio Coding 3
Codec ID                                 : A_AC3
Duration                                 : 2 h 43 min
Bit rate mode                            : Constant
Bit rate                                 : 384 kb/s
Channel(s)                               : 6 channels
Channel positions                        : Front: L C R, Side: L R, LFE
Sampling rate                            : 48.0 kHz
Frame rate                               : 31.250 FPS (1536 SPF)
Bit depth                                : 16 bits
Compression mode                         : Lossy
Stream size                              : 449 MiB (8%)
Language                                 : Russian
Service kind                             : Complete Main
Default                                  : Yes
Forced                                   : No

Audio #2
ID                                       : 3
Format                                   : AC-3
Format/Info                              : Audio Coding 3
Codec ID                                 : A_AC3
Duration                                 : 2 h 43 min
Bit rate mode                            : Constant
Bit rate                                 : 384 kb/s
Channel(s)                               : 6 channels
Channel positions                        : Front: L C R, Side: L R, LFE
Sampling rate                            : 48.0 kHz
Frame rate                               : 31.250 FPS (1536 SPF)
Bit depth                                : 16 bits
Compression mode                         : Lossy
Stream size                              : 449 MiB (8%)
Language                                 : English
Service kind                             : Complete Main
Default                                  : No
Forced                                   : No

Text #1
ID                                       : 4
Format                                   : UTF-8
Codec ID                                 : S_TEXT/UTF8
Codec ID/Info                            : UTF-8 Plain Text
Duration                                 : 56 s 200 ms
Bit rate                                 : 185 b/s
Count of elements                        : 8
Stream size                              : 1.27 KiB (0%)
Language                                 : Russian
Default                                  : Yes
Forced                                   : Yes

Text #2
ID                                       : 5
Format                                   : UTF-8
Codec ID                                 : S_TEXT/UTF8
Codec ID/Info                            : UTF-8 Plain Text
Duration                                 : 2 h 31 min
Bit rate                                 : 45 b/s
Count of elements                        : 1010
Stream size                              : 50.4 KiB (0%)
Language                                 : Russian
Default                                  : No
Forced                                   : No

Text #3
ID                                       : 6
Format                                   : UTF-8
Codec ID                                 : S_TEXT/UTF8
Codec ID/Info                            : UTF-8 Plain Text
Duration                                 : 2 h 26 min
Bit rate                                 : 24 b/s
Count of elements                        : 974
Stream size                              : 26.6 KiB (0%)
Language                                 : English
Default                                  : No
Forced                                   : No

Menu
00:00:00.000                             : en:1
00:12:35.171                             : en:2
00:23:28.282                             : en:3
00:36:59.885                             : en:4
00:42:49.317                             : en:5
00:49:23.502                             : en:6
00:58:34.553                             : en:7
01:04:09.679                             : en:8
01:15:46.292                             : en:9
01:25:11.482                             : en:10
01:36:14.061                             : en:11
01:50:54.107                             : en:12
02:01:35.873                             : en:13
02:08:39.379                             : en:14
02:16:41.486                             : en:15
02:27:45.733                             : en:16



Скриншоты:
[+] Всего файлов в раздаче - 1:
Blade.Runner.2049.2017.720p.WEB-DL.Rus.Eng.mkv5.53 GB

Текущая раздача:
ДатаКомментарии    РазмерПиры
2018-01-02 U Бегущий по лезвию 2049 / Blade Runner 2049 (2017) WEB-DL 720p | iTunes 5.53 GB ↑ 399 ↓ 185

Показать еще раздачи по запросу бегущий:
2018-02-12 U Бегущий по лезвию 2049 / Blade Runner 2049 (2017) BDRip 720p от NNNB | 60 fps | US-Transfer | Лицензия 5.25 GB ↑ 146 ↓ 30
2018-02-07 U Бегущий по лезвию 2049 / Blade Runner 2049 (2017) BDRip от HQCLUB | Лицензия | D 2.92 GB ↑ 170 ↓ 84
2018-01-29 U Джеймс Дэшнер - Бегущий в лабиринте 3. Лекарство от смерти (2017) MP3 547.11 MB ↑ 86 ↓ 17
2018-01-28 U Бегущий по лезвию 2049 / Blade Runner 2049 (2017) BDRip | A 2.17 GB ↑ 127 ↓ 50
2018-01-17 U Бегущий по лезвию 2049 / Blade Runner 2049 (2017) UHD BDRemux 2160p от ExKinoRay | 4K | HDR | Лицензия 63.32 GB ↑ 59 ↓ 71
2018-01-15 U Бегущий по лезвию / Blade Runner (1982) UHDRip-HEVC 1080p | Final Cut | D 7.58 GB ↑ 246 ↓ 22
2018-01-13 U Бегущий по лезвию 2049 / Blade Runner 2049 (2017) BDRemux 1080p | US Transfer | D, A | Лицензия 32.79 GB ↑ 71 ↓ 109

Отзывы
Зарегистрируйтесь чтобы добавить комментарий.
Обратная связь
Copyleft ©