↑↓Torrent.by
Поиск
Логин: Регистрация
Пароль: Восстановить пароль
Загрузка...

Полный расколбас / Sausage Party (2016) BDRip 720p | Гоблин

Скачать polnyy-raskolbas-sausage-party-2016-bdrip-720p-goblin.torrent
U Магнитная ссылка Размер: 3.34 GB Раздают: 141 Качают: 58 Добавлен: 2018-01-02 21:51:13
Полный расколбас / Sausage Party (2016) BDRip 720p | Гоблин

Название: Полный расколбас / Сосисочная вечеринка (Гоблин)
Оригинальное название: Sausage Party
Год выхода: 2016
Жанр: Компьютерная анимация, Для взрослых, Комедия
Режиссер: Грег Тирнан, Конрад Вернон
В ролях: Сет Роген, Кристен Уиг, Джона Хилл, Майкл Сера, Джеймс Франко

О фильме:
Первая анимационная комедия для взрослых о невероятных приключениях еды из супермаркета. Съедобным друзьям предстоит получить ответ на главный вопрос: есть ли жизнь за стенами супермаркета, и что же происходит с продуктами после того, как они попадают к людям домой?


Страна: США, Канада
Студия: Columbia Pictures, Annapurna Pictures
Продолжительность: 01:28:45
Перевод: Авторский (одноголосый закадровый) Д. "Гоблин" Пучков, "Полный Пэ"

Файл
Кодек: AVC/H.264
Качество: BDRip 720
Видео: AVC, 1280x692 (1,85:1), 24 fps, 5 131 Kbps
Аудио: MP3, 48.0 KHz, 2 ch, 256 Kbps, CBR (Russian)
[+] Mediainfo:

Расположение: D:1Sausage Party.2016.720p.Goblin.mkv
Имя файла: Sausage Party.2016.720p.Goblin.mkv
Формат файла: .mkv (Matroska)
Размер файла: 3,34 GB (3 588 725 100 bytes)
Длительность: 1h 28mn
Навигация по главам: Есть
Битрейт (все потоки): 5 391 Kbps
Файл создан: UTC 2017-12-31 12:56:01
Создан при помощи: mkvmerge v6.2.0 ('Promised Land') built on Apr 28 2013 18:50:30
Использовалась библиотека: libebml v1.3.0 + libmatroska v1.4.0
Обложка: Отсутствует

Название: Video Track

Тип потока: Видео
Длительность: 01:28:45
Кодек: AVC
Кодек/описание: Advanced Video Codec
Кодек/профиль: High@L4.1
Кодек/ID: V_MPEG4/ISO/AVC
Кодек/CABAC: Yes
Кодек/ReFrames: 9 frames
Размеры изображения: 1280 x 692 (1.85:1)
Частота кадров: 23.976 fps
Частота кадров/тип: Constant
Размер потока: 3.12 GiB (93%)
Битрейт: 5 131 Kbps
Библиотека кодирования: x264 core 148 r2721 72d53ab
Цветовое пространство: YUV
Тип развёртки: Progressive
Колориметрия: 4:2:0
Глубина: 8 bits
Настройки кодирования: cabac=1 / ref=9 / deblock=1:0:0 / analyse=0x3:0x133 / me=umh / subme=11 / psy=1 / psy_rd=1.00:0.05 / mixed_ref=1 / me_range=32 / chroma_me=1 / trellis=2 / 8x8dct=1 / cqm=0 / deadzone=21,11 / fast_pskip=0 / chroma_qp_offset=-3 / threads=6 / lookahead_threads=1 / sliced_threads=0 / nr=0 / decimate=1 / interlaced=0 / bluray_compat=0 / constrained_intra=0 / bframes=9 / b_pyramid=2 / b_adapt=2 / b_bias=0 / direct=3 / weightb=1 / open_gop=0 / weightp=2 / keyint=240 / keyint_min=23 / scenecut=40 / intra_refresh=0 / rc=2pass / mbtree=0 / bitrate=5131 / ratetol=1.0 / qcomp=0.60 / qpmin=0 / qpmax=69 / qpstep=4 / cplxblur=20.0 / qblur=0.5 / ip_ratio=1.40 / pb_ratio=1.30 / aq=1:0.95

Тип потока: Звук #1
Язык: Russian
Название: Audio Track
Длительность: 01:28:45.456
Кодек: MPEG Audio
Кодек/профиль: Layer 3
Кодек/ID: A_MPEG/L3
Частота дискретизации: 48.0 KHz
Каналов: 2 channels
Битрейт: 256 Kbps
Битрейт/тип: Constant
Размер потока: 163 MiB (5%)
Метод сжатия: Lossy
Программа: LAME3.98.2



Скриншоты:
[+] Всего файлов в раздаче - 1:
Sausage Party.2016.720p.Goblin.mkv3.34 GB

Текущая раздача:
ДатаКомментарии    РазмерПиры
2018-01-02 U Полный расколбас / Sausage Party (2016) BDRip 720p | Гоблин 3.34 GB ↑ 141 ↓ 58

Показать еще раздачи по запросу полный:
2018-01-03 U Мир, полный чудес / Wonderstruck (2017) WEB-DL 1080p | L1 4.33 GB ↑ 115 ↓ 49
2018-01-03 U Мир, полный чудес / Wonderstruck (2017) WEB-DLRip от ExKinoRay | L1 1.46 GB ↑ 40 ↓ 57
2017-12-04 U Даймонд Джон - Голодный и Бедный! Как полный голяк, скудный бюджет и жажда успеха могут стать вашими главными конкурентными преимуществами (2017) DOCX, FB2 1.80 MB ↑ 72 ↓ 8
2017-06-21 U Полный пансион / Pension complète (2015) WEB-DLRip | P 1.45 GB ↑ 80 ↓ 24
2017-06-19 U Полный пансион / Pension complète (2015) WEB-DLRip-AVC от ImperiaFilm | P 741.14 MB ↑ 94 ↓ 26
2017-02-07 U Полный курс по взлому. От начального до продвинутого уровня! Все 10 частей (2016) WEBRip 720p | L1 6.73 GB ↑ 2127 ↓ 23
2017-01-16 U VA - Полный отрыв. Зимние хиты 3 (2017) MP3 671.34 MB ↑ 166 ↓ 67

Отзывы
Зарегистрируйтесь чтобы добавить комментарий.
Обратная связь
Copyleft ©