↑↓torrent.by
Поиск
Логин: Регистрация
Пароль: Восстановить пароль

Бегущий по лезвию / Blade Runner (1982) BDRip-HEVC 1080p | Final Cut | D

Скачать beguschiy-po-lezviyu-blade-runner-1982-bdrip-hevc-1080p-final-cut-d.torrent
U Магнитная ссылка Размер: 5.84 GB Раздают: 845 Качают: 104 Добавлен: 2018-01-03 13:44:02
Бегущий по лезвию / Blade Runner (1982) BDRip-HEVC 1080p | Final Cut | D

Название: Бегущий по лезвию
Оригинальное название: Blade Runner
Год выхода: 1982
Жанр: фантастика, киберпанк, драма
Режиссер: Ридли Скотт
В ролях: Харрисон Форд, Рутгер Хауэр, Шон Янг, Дэрил Ханна, Брайон Джеймс, Эдвард Джеймс Олмос, Джоанна Кэссиди

О фильме:
Недалекое будущее. Декард - полицейский в отставке, бывший "бегущий по лезвию" - охотник на репликантов - андроидов, созданных корпорацией "Тайрелл". Репликанты были объявлены на Земле вне закона, но группа репликантов серии Nexus-6 завладела шаттлом и, перебив команду и пассажиров, вернулась на Землю из колонии. Декарда вызвали для того, чтобы совершить грязную работу - уничтожить их...

Страна: США, Гонконг
Продолжительность: 01:57:36
Перевод: Профессиональный (полное дублирование) Blu-ray CEE

Файл
Кодек: HEVC x265 10bit
Качество: BDRip-HEVC 1080p
Видео: 1920x800, 23.976 кадр/сек, 5829 Кбит/сек, (Main 10@L5.1@High) 10bit
Звук:
Аудио1: Русская, AC3 640 Кбит/сек, 6 канала(ов),16bit 48,0 КГц
Аудио2: English, AC3 640 Кбит/сек, 6 канала(ов),16bit 48,0 КГц
Субтитры: Русские, English
Навигация по главам: Есть

Релиз от: Cthulhu


[+] Mediainfo
General
Unique ID                   : 180700349869856005549993962318305202848 (0x87F19F192745E7C5A72D1FDCC94892A0)
Complete name               : F:HEVCBlade Runner [Final Cut] (1982) BDRip 1080p [HEVC] 10Bit.mkv
Format                      : Matroska
Format version              : Version 4 / Version 2
File size                   : 5.84 GiB
Duration                    : 1 h 57 min
Overall bit rate            : 7 112 kb/s
Movie name                  : rip_by_Cthulhu
Encoded date                : UTC 2018-01-02 19:13:30
Writing application         : mkvmerge v18.0.0 ('Apricity') 64-bit
Writing library             : libebml v1.3.5 + libmatroska v1.4.8
Cover                       : Yes
Attachments                 : cover3.jpg

Video
ID                          : 1
Format                      : HEVC
Format/Info                 : High Efficiency Video Coding
Format profile              : Main 10@L5.1@High
Codec ID                    : V_MPEGH/ISO/HEVC
Duration                    : 1 h 57 min
Bit rate                    : 5 829 kb/s
Width                       : 1 920 pixels
Height                      : 800 pixels
Display aspect ratio        : 2.40:1
Frame rate mode             : Constant
Frame rate                  : 23.976 (24000/1001) FPS
Color space                 : YUV
Chroma subsampling          : 4:2:0
Bit depth                   : 10 bits
Bits/(Pixel*Frame)          : 0.158
Stream size                 : 4.79 GiB (82%)
Writing library             : x265 2.6+8-fc0570b8d8f9:[Windows][GCC 7.1.0][64 bit] 10bit
Encoding settings           : cpuid=1050111 / frame-threads=5 / numa-pools=4 / wpp / no-pmode / no-pme / no-psnr / no-ssim / log-level=3 / input-csp=1 / input-res=1920x800 / interlace=0 / total-frames=0 / level-idc=51 / high-tier=1 / uhd-bd=0 / ref=5 / no-allow-non-conformance / no-repeat-headers / annexb / no-aud / no-hrd / info / hash=0 / no-temporal-layers / open-gop / min-keyint=24 / keyint=240 / gop-lookahead=0 / bframes=10 / b-adapt=2 / b-pyramid / bframe-bias=0 / rc-lookahead=40 / lookahead-slices=5 / scenecut=40 / no-intra-refresh / ctu=64 / min-cu-size=8 / no-rect / no-amp / max-tu-size=32 / tu-inter-depth=3 / tu-intra-depth=3 / limit-tu=0 / rdoq-level=1 / dynamic-rd=0.00 / no-ssim-rd / signhide / no-tskip / nr-intra=0 / nr-inter=0 / no-constrained-intra / no-strong-intra-smoothing / max-merge=3 / limit-refs=3 / no-limit-modes / me=2 / subme=6 / merange=57 / temporal-mvp / weightp / weightb / no-analyze-src-pics / deblock=-3:-3 / no-sao / no-sao-non-deblock / rd=4 / no-early-skip / rskip / no-fast-intra / no-tskip-fast / no-cu-lossless / no-b-intra / no-splitrd-skip / rdpenalty=0 / psy-rd=2.00 / psy-rdoq=0.00 / no-rd-refine / analysis-reuse-mode=0 / no-lossless / cbqpoffs=0 / crqpoffs=0 / rc=crf / crf=18.0 / qcomp=0.60 / qpstep=4 / stats-write=0 / stats-read=0 / vbv-maxrate=50000 / vbv-bufsize=35714 / vbv-init=0.9 / crf-max=30.0 / crf-min=0.0 / ipratio=1.40 / pbratio=1.30 / aq-mode=1 / aq-strength=1.00 / cutree / zone-count=0 / no-strict-cbr / qg-size=32 / no-rc-grain / qpmax=69 / qpmin=0 / no-const-vbv / sar=1 / overscan=0 / videoformat=5 / range=0 / colorprim=2 / transfer=2 / colormatrix=2 / chromaloc=0 / display-window=0 / max-cll=0,0 / min-luma=0 / max-luma=1023 / log2-max-poc-lsb=8 / vui-timing-info / vui-hrd-info / slices=1 / no-opt-qp-pps / no-opt-ref-list-length-pps / no-multi-pass-opt-rps / scenecut-bias=0.05 / no-opt-cu-delta-qp / no-aq-motion / no-hdr / no-hdr-opt / no-dhdr10-opt / analysis-reuse-level=5 / scale-factor=0 / refine-intra=0 / refine-inter=0 / refine-mv=0 / no-limit-sao / ctu-info=0 / no-lowpass-dct / refine-mv-type=0 / copy-pic=1
Language                    : English
Default                     : Yes
Forced                      : No
Color range                 : Full

Audio #1
ID                          : 2
Format                      : AC-3
Format/Info                 : Audio Coding 3
Format settings, Endianness : Big
Codec ID                    : A_AC3
Duration                    : 1 h 57 min
Bit rate mode               : Constant
Bit rate                    : 640 kb/s
Channel(s)                  : 6 channels
Channel positions           : Front: L C R, Side: L R, LFE
Sampling rate               : 48.0 kHz
Frame rate                  : 31.250 FPS (1536 SPF)
Bit depth                   : 16 bits
Compression mode            : Lossy
Stream size                 : 538 MiB (9%)
Language                    : Russian
Service kind                : Complete Main
Default                     : Yes
Forced                      : No

Audio #2
ID                          : 3
Format                      : AC-3
Format/Info                 : Audio Coding 3
Format settings, Endianness : Big
Codec ID                    : A_AC3
Duration                    : 1 h 57 min
Bit rate mode               : Constant
Bit rate                    : 640 kb/s
Channel(s)                  : 6 channels
Channel positions           : Front: L C R, Side: L R, LFE
Sampling rate               : 48.0 kHz
Frame rate                  : 31.250 FPS (1536 SPF)
Bit depth                   : 16 bits
Compression mode            : Lossy
Stream size                 : 538 MiB (9%)
Language                    : English
Service kind                : Complete Main
Default                     : No
Forced                      : No

Text #1
ID                          : 4
Format                      : UTF-8
Codec ID                    : S_TEXT/UTF8
Codec ID/Info               : UTF-8 Plain Text
Duration                    : 1 h 56 min
Bit rate                    : 48 b/s
Count of elements           : 843
Stream size                 : 41.1 KiB (0%)
Language                    : Russian
Default                     : Yes
Forced                      : No

Text #2
ID                          : 5
Format                      : UTF-8
Codec ID                    : S_TEXT/UTF8
Codec ID/Info               : UTF-8 Plain Text
Duration                    : 1 h 47 min
Bit rate                    : 31 b/s
Count of elements           : 894
Stream size                 : 25.2 KiB (0%)
Language                    : English
Default                     : No
Forced                      : No

Menu
00:00:00.000                : :Глава 1
00:05:00.000                : :Глава 2
00:10:00.000                : :Глава 3
00:15:00.000                : :Глава 4
00:20:00.000                : :Глава 5
00:25:00.000                : :Глава 6
00:30:00.000                : :Глава 7
00:35:00.000                : :Глава 8
00:40:00.000                : :Глава 9
00:45:00.000                : :Глава 10
00:50:00.000                : :Глава 11
00:55:00.000                : :Глава 12
01:00:00.000                : :Глава 13
01:05:00.000                : :Глава 14
01:10:00.000                : :Глава 15
01:15:00.000                : :Глава 16
01:20:00.000                : :Глава 17
01:25:00.000                : :Глава 18
01:30:00.000                : :Глава 19
01:35:00.000                : :Глава 20
01:40:00.000                : :Глава 21
01:45:00.000                : :Глава 22
01:50:00.000                : :Глава 23
01:55:00.000                : :Глава 24




Скриншоты:
[+] Всего файлов в раздаче - 1:
Blade Runner [Final Cut] (1982) BDRip 1080p [HEVC] 10Bit.mkv5.84 GB

Похожие раздачи по запросу - бегущий:
2018-01-15 U Бегущий по лезвию / Blade Runner (1982) UHDRip-HEVC 1080p | Final Cut | D 7.58 GB ↑ 470 ↓ 38
2018-01-05 U Бегущий по лезвию 2049 / Blade Runner 2049 (2017) HDRip от Scarabey | Лицензия 1.46 GB ↑ 1145 ↓ 140
2018-01-05 U Бегущий по лезвию 2049 / Blade Runner 2049 (2017) BDRip от MegaPeer | Лицензия 1.46 GB ↑ 2503 ↓ 1749
2018-01-02 U Бегущий по лезвию 2049 / Blade Runner 2049 (2017) WEB-DL 1080p | iTunes 6.23 GB ↑ 9061 ↓ 4007

Отзывы
Зарегистрируйтесь чтобы добавить комментарий.
Обратная связь
Copyleft ©