↑↓Torrent.by
Поиск
Логин: Регистрация
Пароль: Восстановить пароль
Загрузка...

Зеркало для героя (1987) DVDRip

Скачать zerkalo-dlya-geroya-1987-dvdrip.torrent
U Магнитная ссылка Размер: 2.17 GB Раздают: 77 Качают: 33 Добавлен: 2018-01-03 13:44:38
Зеркало для героя (1987) DVDRip

Название: Зеркало для героя
Год выхода: 1987
Жанр:  Фантастика, фэнтези
Режиссёр: Владимир Хотиненко
В ролях: Иван Бортник, Сергей Колтаков, Борис Галкин, Наталья Акимова, Феликс Степун, Елена Гольянова, Яков Степанов, Виктор Смирнов, Николай Стоцкий, Сергей Паршин

О фильме: Двое случайных знакомых, Сергей Пшеничный и Андрей Немчинов, волею загадочных обстоятельств переносятся почти на 40 лет назад. Этот день — 8 мая 1949 года — начинает повторяться для них с неумолимым постоянством. Каждому из героев судьба дает свой шанс: Андрей может предотвратить гибель людей в обветшавшей шахте, Сергей — по-новому взглянуть на своих родителей и понять их...

Страна: СССР
Студия: Свердловская киностудия
Продолжительность: 02:11:24
Перевод: Не требуется (оригинальный)

Файл
Формат: avi
Качество: DVDRip (DVD9)
Видео: XviD, 688х464, 25fps, 2165kbps
Аудио: MPEG Layer 3, 2ch, 48000Hz, 192kbps

Релиз:


[+] MediaInfo

Общее
Полное имя                               : Zerkalo.Dla.Geroa.1987.O.DVDRip.2100.CurHaJI.avi
Формат                                   : AVI
Формат/Информация                        : Audio Video Interleave
Профиль формата                          : OpenDML
Размер файла                             : 2,17 Гбайт
Продолжительность                        : 2 ч. 11 м.
Общий поток                              : 2369 Кбит/сек
Название фильма                          : Zerkalo.Dla.Geroa.1987.O.DVDRip.2100.CurHaJI
Программа кодирования                    : VirtualDubMod 1.5.10.3 | www.virtualdub-fr.org || (build 2550/release)
Библиотека кодирования                   : VirtualDub build 35491/release

Видео
Идентификатор                            : 0
Формат                                   : MPEG-4 Visual
Профиль формата                          : Advanced Simple@L5
Параметр BVOP формата                    : 1
Параметр QPel формата                    : Нет
Параметр GMC формата                     : Без точки перехода
Параметр матрицы формата                 : Выборочная
Идентификатор кодека                     : XVID
Идентификатор кодека/Подсказка           : XviD
Продолжительность                        : 2 ч. 11 м.
Битрейт                                  : 2165 Кбит/сек
Ширина                                   : 688 пикселей
Высота                                   : 464 пикселя
Соотношение сторон                       : 3:2
Частота кадров                           : 25,000 кадров/сек
Цветовое пространство                    : YUV
Субдискретизация насыщенности            : 4:2:0
Битовая глубина                          : 8 бит
Тип развёртки                            : Прогрессивная
Метод сжатия                             : С потерями
Бит/(Пиксели*Кадры)                      : 0.271
Размер потока                            : 1,99 Гбайт (91%)
Библиотека кодирования                   : XviD 73

Аудио
Идентификатор                            : 1
Формат                                   : MPEG Audio
Версия формата                           : Version 1
Профиль формата                          : Layer 3
Идентификатор кодека                     : 55
Идентификатор кодека/Подсказка           : MP3
Продолжительность                        : 2 ч. 11 м.
Вид битрейта                             : Постоянный
Битрейт                                  : 192 Кбит/сек
Каналы                                   : 2 канала
Частота                                  : 48,0 КГц
Метод сжатия                             : С потерями
Размер потока                            : 180 Мбайт (8%)
Выравнивание                             : Соединение по промежуткам
Продолжительность промежутка             : 40  мс. (1,00 видеокадр)
Время предзагрузки промежутка            : 504  мс.
Библиотека кодирования                   : LAME3.99r
Настройки программы                      : -m s -V 4 -q 2 -lowpass 18.6 -b 192



Скриншоты:
[+] Всего файлов в раздаче - 1:
Zerkalo.Dla.Geroa.1987.O.DVDRip.2100.CurHaJI.avi2.17 GB

Текущая раздача:
ДатаКомментарии    РазмерПиры
2018-01-03 U Зеркало для героя (1987) DVDRip 2.17 GB ↑ 77 ↓ 33

Показать еще раздачи по запросу зеркало:
2018-01-15 U Черное зеркало / Black Mirror [01-04x01-18 из 19] (2011-2017) WEBRip | LostFilm 12.69 GB ↑ 41 ↓ 51
2018-01-13 U Черное зеркало / Black Mirror [04х01-05 из 06] (2017) WEBRip 1080p | Кубик в Кубе 7.96 GB ↑ 41 ↓ 36
2018-01-09 U Черное зеркало / Black Mirror [04х01-04 из 06] (2017) WEBRip 1080p | Кубик в Кубе 5.67 GB ↑ 153 ↓ 31
2018-01-07 U Черное зеркало / Black Mirror [S04] (2017) WEBRip | NewStudio 4.27 GB ↑ 79 ↓ 65
2018-01-06 U Черное зеркало / Black Mirror [S04] (2017) WEBRip 1080p | NewStudio 1К8.92 GB ↑ 180 ↓ 129
2018-01-03 U Черное зеркало / Black Mirror [04х02-05 из 06] (2017) WEBRip 1080p | NewStudio 1К5.31 GB ↑ 142 ↓ 210
2018-01-03 U Черное зеркало / Black Mirror [04х01-02 из 06] (2017) WEBRip от Scarabey | Кубик в Кубе 1.96 GB ↑ 75 ↓ 30

Отзывы
Зарегистрируйтесь чтобы добавить комментарий.
Обратная связь
Copyleft ©