↑↓Torrent.by
Поиск
Логин: Регистрация
Пароль: Восстановить пароль
Загрузка...

Кроткая (2017) WEB-DL 1080p

Скачать krotkaya-2017-web-dl-1080p.torrent
U Магнитная ссылка Размер: 1.16 GB Раздают: 829 Качают: 185 Добавлен: 2018-01-05 00:38:05
Кроткая (2017) WEB-DL 1080p

Название: Кроткая
Год выхода: 2017
Жанр: Драма
Страна: Франция, Россия, Германия, Латвия, Литва, Нидерланды, Украина
Продолжительность: 02:17:34

Режиссер: Сергей Лозница
В ролях: Василина Маковцева, Лия Ахеджакова, Роза Хайруллина, Борис Каморзин, Сергей Русскин, Сергей Кошонин, Николай Коляда

О фильме: Женщине на почте возвращают посылку, посланную ею некоторое время назад мужу, который отбывает срок наказания за преступление, которого он не совершал. Несчастная женщина, глубоко расстроена, решает ехать к мужу, чтобы узнать, что случилось…

Файл
Кодек: MKV
Качество: WEB-DL 1080p
Видео: MPEG4 Video (H264) 1920x1080 25fps 1074kbps
Звук: AAC 44100Hz stereo 125kbps
[+] MI
General
Unique ID                      : 302699586233543775235272067481195211004 (0xE3B9D1D9B312C366C9D693BA89BF68FC)
Complete name                  : D:Krotkaya.2017.WEB-DL.1080p.mkv
Format                         : Matroska
Format version                 : Version 4 / Version 2
File size                      : 1.16 GiB
Duration                       : 2 h 17 min
Overall bit rate               : 1 202 kb/s
Encoded date                   : UTC 2018-01-04 15:16:52
Writing application            : mkvmerge v19.0.0 ('Brave Captain') 64-bit
Writing library                : libebml v1.3.5 + libmatroska v1.4.8

Video
ID                             : 1
Format                         : AVC
Format/Info                    : Advanced Video Codec
Format profile                 : High@L4
Format settings                : CABAC / 3 Ref Frames
Format settings, CABAC         : Yes
Format settings, RefFrames     : 3 frames
Codec ID                       : V_MPEG4/ISO/AVC
Duration                       : 2 h 17 min
Bit rate                       : 1 075 kb/s
Width                          : 1 920 pixels
Height                         : 1 080 pixels
Display aspect ratio           : 16:9
Frame rate mode                : Constant
Frame rate                     : 25.000 FPS
Color space                    : YUV
Chroma subsampling             : 4:2:0
Bit depth                      : 8 bits
Scan type                      : Progressive
Bits/(Pixel*Frame)             : 0.021
Stream size                    : 1.03 GiB (89%)
Default                        : Yes
Forced                         : No
Color range                    : Limited
Color primaries                : BT.709
Transfer characteristics       : BT.709
Matrix coefficients            : BT.709

Audio
ID                             : 2
Format                         : AAC
Format/Info                    : Advanced Audio Codec
Format profile                 : LC
Codec ID                       : A_AAC-2
Duration                       : 2 h 17 min
Bit rate                       : 126 kb/s
Channel(s)                     : 2 channels
Channel positions              : Front: L R
Sampling rate                  : 44.1 kHz
Frame rate                     : 43.066 FPS (1024 SPF)
Compression mode               : Lossy
Stream size                    : 124 MiB (10%)
Default                        : Yes
Forced                         : No



Скриншоты:
[+] Всего файлов в раздаче - 1:
Krotkaya.2017.WEB-DL.1080p.mkv1.16 GB

Текущая раздача:
ДатаКомментарии    РазмерПиры
2018-01-05 U Кроткая (2017) WEB-DL 1080p 1.16 GB ↑ 829 ↓ 185

Показать еще раздачи по запросу кроткая:
2018-07-22 U Кроткая / Une femme douce / A Gentle Creature (2017) BDRip от ExKinoRay | Лицензия 1.46 GB ↑ 90 ↓ 27
2018-05-19 U Кроткая (2017) BDRip 1080p от OlLanDGroup | Лицензия 8.38 GB ↑ 94 ↓ 47
2018-05-18 U Кроткая (2017) BDRip от MegaPeer | Лицензия 2.18 GB ↑ 108 ↓ 35
2018-05-18 U Кроткая (2017) BDRip от MegaPeer | Лицензия 1.46 GB ↑ 171 ↓ 79
2018-02-28 U Кроткая (2017) WEB-DLRip от GeneralFilm 1.45 GB ↑ 346 ↓ 158
2018-02-27 U Кроткая / Une femme douce / A Gentle Creature (2017) WEBRip 2.05 GB ↑ 141 ↓ 60
2018-02-25 U Кроткая (2017) WEBRip-AVC 813.11 MB ↑ 446 ↓ 104

Отзывы
Зарегистрируйтесь чтобы добавить комментарий.
Обратная связь
Copyleft ©