↑↓Torrent.by
Поиск
Логин: Регистрация
Пароль: Восстановить пароль
Загрузка...

Секретные материалы / The X-Files [11x01 из 10] (2018) WEB-DL 1080p | ТВ3

Скачать sekretnye-materialy-the-x-files-11x01-iz-10-2018-web-dl-1080p-tv3.torrent
U Магнитная ссылка Размер: 3.77 GB Раздают: 88 Качают: 17 Добавлен: 2018-01-06 22:31:22
Секретные материалы / The X-Files [11x01 из 10] (2018) WEB-DL 1080p | ТВ3

Название: Секретные материалы
Оригинальное название: The X-Files
Год выхода: 2018
Жанр: фантастика, триллер, драма, детектив
Режиссер: Крис Картер, Дэрин Морган, Глен Морган
В ролях: Дэвид Духовны, Джиллиан Андерсон, Митч Пилледжи, Уильям Б. Дэвис, Робби Амелл, Джоэл МакХэйл, Эндрю Моргадо, Лорен Эмброуз, Гардинер Миллар, Ализа Веллани

О фильме:
В конце 10-го сезона "Секретных материалов" мир охватил неизвестный смертельный вирус, иммунитет от которого есть только у Даны Скалли, и теперь судьба 7 миллиардов землян находится в руках спецагентов! Одним из главных героев нового сезона станет сын агентов Малдера и Скалли Уильям, появившийся на свет в результате искусственного оплодотворения и названный в честь отца Малдера. В новых сериях появятся и все главные действующие лица, включая Курильщика и директора ФБР Скинера в исполнении Митча Пиледжи. По традиции, все события сериала будут вписаны в реалии нашего мира, а зрителя ждут новые разоблачения правительственных заговоров и деятельности инопланетных пришельцев. Создатели сериала обещают также приличную порцию чёрного юмора, так что в одной из серий появится популярный комедийный актёр Брайан Хаски.

Страна: США
Студия: 20th Century Fox Television, Ten Thirteen Productions
Продолжительность: ~ 00:43:00 серия
Перевод: Профессиональный (дублированный) ТВ3

Файл
Качество: WEB-DL 1080p | The.X-Files.S11.1080p.AMZN-QOQ
Формат: Matroska
Видео: 1920x1080 at 23.976 fps, MPEG-4 AVC, ~11800 kbps avg
Aудио#1: Russian: 48 kHz, AC3, 2/0 (L,R) ch, ~192 kbps avg |Дубляж, ТВ3|
Aудио#2: English: 48 kHz, AC3, 3/2 (L,C,R,l,r) + LFE ch, ~640 kbps avg
Субтитры: Russian (Forced), English

***Примечание: Без рекламы.
***Релиз: Atla22.


[+] Список серий
01. My Struggle III / Моя борьба III



[+] MediaInfo
Общее
Уникальный идентификатор                 : 231716064214428689895021449689643902440 (0xAE52E402BA23D1B48204162E8B0065E8)
Полное имя                               : s11e01. Моя борьба-3.mkv
Формат                                   : Matroska
Версия формата                           : Version 2
Размер файла                             : 3,77 Гбайт
Продолжительность                        : 42 м.
Режим общего битрейта                    : Переменный
Общий поток                              : 12,8 Мбит/сек
Название фильма                          : My Struggle III
Дата кодирования                         : UTC 2018-01-05 14:22:14
Программа кодирования                    : mkvmerge v7.8.0 ('River Man') 32bit built on Apr  3 2015 12:11:22
Библиотека кодирования                   : libebml v1.3.1 + libmatroska v1.4.2
Attachment                               : Yes

Видео
Идентификатор                            : 1
Формат                                   : AVC
Формат/Информация                        : Advanced Video Codec
Профиль формата                          : High@L4.0
Параметр CABAC формата                   : Да
Параметр ReFrames формата                : 4 кадра
Идентификатор кодека                     : V_MPEG4/ISO/AVC
Продолжительность                        : 42 м.
Вид битрейта                             : Переменный
Битрейт                                  : 11,8 Мбит/сек
Максимальный битрейт                     : 15,0 Мбит/сек
Ширина                                   : 1920 пикселей
Высота                                   : 1080 пикселей
Соотношение сторон                       : 16:9
Режим частоты кадров                     : Постоянный
Частота кадров                           : 24,000 кадра/сек
Частота кадров в оригинале               : 23,976 кадра/сек
Цветовое пространство                    : YUV
Субдискретизация насыщенности            : 4:2:0
Битовая глубина                          : 8 бит
Тип развёртки                            : Прогрессивная
Бит/(Пиксели*Кадры)                      : 0.236
Размер потока                            : 3,45 Гбайт (92%)
Язык                                     : English
Default                                  : Да
Forced                                   : Нет
Основные цвета                           : BT.709
Характеристики трансфера                 : BT.709
Коэффициенты матрицы                     : BT.709

Аудио #1
Идентификатор                            : 2
Формат                                   : AC-3
Формат/Информация                        : Audio Coding 3
Профиль формата                          : Dolby Digital
Расширение режима                        : CM (complete main)
Параметр Endianness формата              : Big
Идентификатор кодека                     : A_AC3
Продолжительность                        : 42 м.
Вид битрейта                             : Постоянный
Битрейт                                  : 192 Кбит/сек
Каналы                                   : 2 канала
Расположение каналов                     : Front: L R
Частота                                  : 48,0 КГц
Битовая глубина                          : 16 бит
Метод сжатия                             : С потерями
Размер потока                            : 57,7 Мбайт (1%)
Заголовок                                : Dub
Язык                                     : Russian
Default                                  : Да
Forced                                   : Нет

Аудио #2
Идентификатор                            : 3
Формат                                   : AC-3
Формат/Информация                        : Audio Coding 3
Расширение режима                        : CM (complete main)
Параметр Endianness формата              : Big
Идентификатор кодека                     : A_AC3
Продолжительность                        : 42 м.
Вид битрейта                             : Постоянный
Битрейт                                  : 640 Кбит/сек
Каналы                                   : 6 каналов
Расположение каналов                     : Front: L C R, Side: L R, LFE
Частота                                  : 48,0 КГц
Битовая глубина                          : 16 бит
Метод сжатия                             : С потерями
Размер потока                            : 192 Мбайт (5%)
Язык                                     : English
Default                                  : Нет
Forced                                   : Нет

Текст #1
Идентификатор                            : 4
Формат                                   : UTF-8
Идентификатор кодека                     : S_TEXT/UTF8
Идентификатор кодека/Информация          : UTF-8 Plain Text
Заголовок                                : Forced
Язык                                     : Russian
Default                                  : Да
Forced                                   : Нет

Текст #2
Идентификатор                            : 5
Формат                                   : UTF-8
Идентификатор кодека                     : S_TEXT/UTF8
Идентификатор кодека/Информация          : UTF-8 Plain Text
Язык                                     : English
Default                                  : Нет
Forced                                   : Нет



Скриншоты:
[+] Всего файлов в раздаче - 1:
s11e01. Моя борьба-3.mkv3.77 GB

Текущая раздача:
ДатаКомментарии    РазмерПиры
2018-01-06 U Секретные материалы / The X-Files [11x01 из 10] (2018) WEB-DL 1080p | ТВ3 3.77 GB ↑ 88 ↓ 17

Показать еще раздачи по запросу секретные:
2018-03-25 U Секретные материалы / The X-Files [S11] (2018) WEB-DLRip | LostFilm 5.41 GB ↑ 51 ↓ 50
2018-03-25 U Секретные материалы / The X-Files [S11] (2018) WEBRip | TB3 5.05 GB ↑ 40 ↓ 39
2018-03-24 U Секретные материалы / The X-Files [S11] (2018) WEBRip | IdeaFilm 6.61 GB ↑ 52 ↓ 113
2018-03-24 U Секретные материалы / The X-Files [S11] (2018) WEB-DL 1080p | TB3 34.53 GB ↑ 94 ↓ 310
2018-03-22 U Секретные материалы / The X-Files [S11] (2018) WEBRip | ColdFilm 4.07 GB ↑ 100 ↓ 278
2018-03-03 U Секретные материалы / The X-Files [11x01-07 из 10] (2018) WEBRip 720p | TB3 7.54 GB ↑ 66 ↓ 157
2018-03-03 U Секретные материалы / The X-Files [11x01-07 из 10] (2018) WEBRip | TB3 3.57 GB ↑ 70 ↓ 207

Отзывы
Зарегистрируйтесь чтобы добавить комментарий.
Обратная связь
Copyleft ©