↑↓Torrent.by
Поиск
Логин: Регистрация
Пароль: Восстановить пароль
Загрузка...

Коматозники / Flatliners (2017) BDRip 720p от ExKinoRay | iTunes

Скачать komatozniki-flatliners-2017-bdrip-720p-ot-exkinoray-itunes.torrent
U Магнитная ссылка Размер: 6.31 GB Раздают: 748 Качают: 496 Добавлен: 2018-01-07 09:50:21
Коматозники / Flatliners (2017) BDRip 720p от ExKinoRay | iTunes

Название: Коматозники
Оригинальное название: Flatliners
Год выхода: 2017
Жанр: Ужасы, фантастика, триллер, драма
Режиссер: Нильс Арден Оплев
В ролях: Эллен Пейдж, Диего Луна, Нина Добрев, Джеймс Нортон, Кирси Клемонс, Кифер Сазерленд, Джейкоб Соли, Анна Арден Оплев, Мигель Энтони

О фильме:
Пятеро студентов-медиков, одержимых желанием узнать, что происходит с человеком после смерти, решаются на рискованный эксперимент: на время они останавливают друг другу сердце, чтобы погрузиться в состояние клинической смерти и на собственном опыте понять, что происходит с человеком по ту сторону. Но они забывают, что, переступив черту, нужно быть готовым к последствиям.

Страна: США
Студия: Cross Creek Pictures, Furthur Films, Laurence Mark Productions, Screen Gems
Продолжительность: 01:49:46
Перевод: Дублированный | iTunes

Файл
Качество: BDRip 720p
Видео: MPEG-4 AVC, 1280x534, 6329 Kbit/s, 23.976 fps
Звук:
Аудио #01: 48 kHz, AC3, 5.1, 384 Kbps | Дублированный | iTunes | RUS |
Аудио #02: 48 kHz, DTS, 5.1, 1510 Kbps | Оригинал |  ENG |
Субтитры: Русские (forced, full), английские

Релиз: Автор релиза:


[+] MI
General
Unique ID                   : 167445656362255432334157114869462968662 (0x7DF8DC40DA223966BB96EE59B0BDA956)
Complete name               : G:VideoSSDFlatliners.2017.BDRip.720p.ExKinoRay.mkv
Format                      : Matroska
Format version              : Version 4 / Version 2
File size                   : 6.31 GiB
Duration                    : 1 h 49 min
Overall bit rate            : 8 225 kb/s
Movie name                  : Flatliners 2017 from ExKinoRay
Encoded date                : UTC 2018-01-06 19:53:51
Writing application         : mkvmerge v19.0.0 ('Brave Captain') 64-bit
Writing library             : libebml v1.3.5 + libmatroska v1.4.8

Video
ID                          : 1
Format                      : AVC
Format/Info                 : Advanced Video Codec
Format profile              : High@L4.1
Format settings             : CABAC / 12 Ref Frames
Format settings, CABAC      : Yes
Format settings, ReFrames   : 12 frames
Codec ID                    : V_MPEG4/ISO/AVC
Duration                    : 1 h 49 min
Bit rate                    : 6 329 kb/s
Width                       : 1 280 pixels
Height                      : 534 pixels
Display aspect ratio        : 2.40:1
Frame rate mode             : Constant
Frame rate                  : 23.976 (24000/1001) FPS
Color space                 : YUV
Chroma subsampling          : 4:2:0
Bit depth                   : 8 bits
Scan type                   : Progressive
Bits/(Pixel*Frame)          : 0.386
Stream size                 : 4.85 GiB (77%)
Writing library             : x264 core 152 r2851+58 429492e t_mod_Custom [8-bit@all X86_64]
Encoding settings           : cabac=1 / ref=12 / deblock=1:-3:-3 / analyse=0x3:0x133 / me=umh / subme=10 / psy=1 / fade_compensate=0.00 / psy_rd=1.02:0.00 / mixed_ref=1 / me_range=32 / chroma_me=1 / trellis=2 / 8x8dct=1 / cqm=0 / deadzone=21,11 / fast_pskip=0 / chroma_qp_offset=-2 / threads=17 / lookahead_threads=4 / sliced_threads=0 / nr=0 / decimate=0 / interlaced=0 / bluray_compat=0 / constrained_intra=0 / fgo=0 / bframes=11 / b_pyramid=2 / b_adapt=2 / b_bias=0 / direct=3 / weightb=1 / open_gop=0 / weightp=2 / keyint=250 / keyint_min=23 / scenecut=40 / intra_refresh=0 / rc_lookahead=60 / rc=crf / mbtree=0 / crf=16.0000 / qcomp=0.60 / qpmin=0:0:0 / qpmax=69:69:69 / qpstep=4 / vbv_maxrate=62500 / vbv_bufsize=78125 / crf_max=0.0 / nal_hrd=none / filler=0 / ip_ratio=1.30 / pb_ratio=1.20 / aq=3:0.80 / aq-sensitivity=10.00 / aq-factor=1.00:1.00:1.00 / aq2=0 / aq3=0 / zones=1576,1917,crf=14/2229,2302,crf=14/6447,7142,crf=14/21432,22200,crf=14/32238,32656,crf=14/152279,157918,b=0.2
Language                    : English
Default                     : Yes
Forced                      : No

Audio #1
ID                          : 2
Format                      : AC-3
Format/Info                 : Audio Coding 3
Codec ID                    : A_AC3
Duration                    : 1 h 49 min
Bit rate mode               : Constant
Bit rate                    : 384 kb/s
Channel(s)                  : 6 channels
Channel positions           : Front: L C R, Side: L R, LFE
Sampling rate               : 48.0 kHz
Frame rate                  : 31.250 FPS (1536 SPF)
Bit depth                   : 16 bits
Compression mode            : Lossy
Stream size                 : 301 MiB (5%)
Title                       : iTunes
Language                    : Russian
Service kind                : Complete Main
Default                     : Yes
Forced                      : No

Audio #2
ID                          : 3
Format                      : DTS
Format/Info                 : Digital Theater Systems
Codec ID                    : A_DTS
Duration                    : 1 h 49 min
Bit rate mode               : Constant
Bit rate                    : 1 509 kb/s
Channel(s)                  : 6 channels
Channel positions           : Front: L C R, Side: L R, LFE
Sampling rate               : 48.0 kHz
Frame rate                  : 93.750 FPS (512 SPF)
Bit depth                   : 24 bits
Compression mode            : Lossy
Stream size                 : 1.16 GiB (18%)
Title                       : Original
Language                    : English
Default                     : No
Forced                      : No

Text #1
ID                          : 4
Format                      : UTF-8
Codec ID                    : S_TEXT/UTF8
Codec ID/Info               : UTF-8 Plain Text
Duration                    : 1 h 47 min
Bit rate                    : 0 b/s
Count of elements           : 10
Stream size                 : 473 Bytes (0%)
Title                       : Forced
Language                    : Russian
Default                     : Yes
Forced                      : No

Text #2
ID                          : 5
Format                      : UTF-8
Codec ID                    : S_TEXT/UTF8
Codec ID/Info               : UTF-8 Plain Text
Duration                    : 1 h 47 min
Bit rate                    : 75 b/s
Count of elements           : 1244
Stream size                 : 59.4 KiB (0%)
Title                       : Full
Language                    : Russian
Default                     : No
Forced                      : No

Text #3
ID                          : 6
Format                      : UTF-8
Codec ID                    : S_TEXT/UTF8
Codec ID/Info               : UTF-8 Plain Text
Duration                    : 1 h 43 min
Bit rate                    : 47 b/s
Count of elements           : 1241
Stream size                 : 36.1 KiB (0%)
Title                       : Full
Language                    : English
Default                     : No
Forced                      : No

Text #4
ID                          : 7
Format                      : UTF-8
Codec ID                    : S_TEXT/UTF8
Codec ID/Info               : UTF-8 Plain Text
Duration                    : 1 h 46 min
Bit rate                    : 59 b/s
Count of elements           : 1693
Stream size                 : 46.5 KiB (0%)
Title                       : SDH
Language                    : English
Default                     : No
Forced                      : No

Menu #1
00:00:00.000                : en:00:00:00.000
00:05:48.557                : en:00:05:48.557
00:11:21.097                : en:00:11:21.097
00:18:01.205                : en:00:18:01.205
00:26:41.600                : en:00:26:41.600
00:35:10.734                : en:00:35:10.734
00:42:31.382                : en:00:42:31.382
00:48:10.971                : en:00:48:10.971
00:55:32.621                : en:00:55:32.621
01:03:49.993                : en:01:03:49.993
01:09:43.262                : en:01:09:43.262
01:16:20.868                : en:01:16:20.868
01:24:18.011                : en:01:24:18.011
01:30:00.186                : en:01:30:00.186
01:36:06.094                : en:01:36:06.094
01:41:54.692                : en:01:41:54.692



Скриншоты:
[+] Всего файлов в раздаче - 1:
Flatliners.2017.BDRip.720p.ExKinoRay.mkv6.31 GB

Текущая раздача:
ДатаКомментарии    РазмерПиры
2018-01-07 U Коматозники / Flatliners (2017) BDRip 720p от ExKinoRay | iTunes 6.31 GB ↑ 748 ↓ 496

Показать еще раздачи по запросу коматозники:
2018-03-06 U Коматозники / Flatliners (2017) BDRip от ExKinoRay | Лицензия 2.18 GB ↑ 677 ↓ 21
2018-03-06 U Коматозники / Flatliners (2017) BDRip от ExKinoRay | Лицензия 1.46 GB ↑ 27 ↓ 10
2018-03-05 U Коматозники / Flatliners (2017) BDRip от MegaPeer | Лицензия 1.46 GB ↑ 1395 ↓ 19
2018-03-05 U Коматозники / Flatliners (2017) BDRip 720p от ExKinoRay | Лицензия 6.36 GB ↑ 515 ↓ 10
2018-03-05 U Коматозники / Flatliners (2017) BDRip 1080p от ExKinoRay | Лицензия 11.89 GB ↑ 690 ↓ 43
2018-01-16 U Коматозники / Flatliners (2017) BDRip от ExKinoRay | iTunes 2.13 GB ↑ 36 ↓ 18
2018-01-10 U Коматозники / Flatliners (2017) BDRip-AVC от HELLYWOOD | iTunes 1К1.41 GB ↑ 89 ↓ 50

Отзывы
Зарегистрируйтесь чтобы добавить комментарий.
Обратная связь
Copyleft ©