↑↓Torrent.by
Поиск
Логин: Регистрация
Пароль: Восстановить пароль
Загрузка...

Лачуга должника [01-08 из 08] (2017) WEB-DL 1080p

Скачать lachuga-dolzhnika-01-08-iz-2017-web-dl-1080p.torrent
U Магнитная ссылка Размер: 9.23 GB Раздают: 128 Качают: 184 Добавлен: 2018-01-07 13:15:45
Лачуга должника [01-08 из 08] (2017) WEB-DL 1080p

Оригинальное название: Лачуга должника
Год выпуска: 2017
Жанр:  Драма, научная фантастика, экранизация
Режиссер: Александр Котт
В ролях: Павел Деревянко, Евгений Пронин, Ирина Старшенбаум, Олег Чугунов, Евгений Стычкин, Сергей Бурунов, Сергей Романович, Мирон Тарасов, Елена Руфанова, Снежана Тулубьева, Евгений Серзин, Сергей Паршин, Фёдор Лавров, Владимир Маслаков, Владимир Волков (VIII), Андрей Лёвин, Эмилия Спивак, Наталья Суркова, Вадим Сквирский, Ромуальд Макаренко, Александр Нестеров (IV), Алексей Суренский, Валерий Кухарешин, Александр Карпухов, Алексей Одинг, Сергей Барковский

О фильме:
Летом 1940 года трое мальчишек находят в песке странную металлическую капсулу. После случайной гибели Петра его брат-близнец Павел и третий мальчик - Виктор, надолго забывают о находке и жидкости из капсулы, которую они вместе выпили... Год за годом герои стремятся к своим целям: Виктор к власти, Павел – к зеркальной планете. XXIII век. На Земле воцарился коммунизм. Павел Белобрысов – человек, получивший возможность прожить миллион лет, отправляется в экспедицию, посвященную поиску планеты Ялмез, зеркально отражающей жизнь на Земле. Там он надеется отыскать своего давным-давно умершего брата-близнеца…

Страна: Россия
Студия: Продюсерский центр «Среда»
Продолжительность: ~00:52:00 серия

Файл
Кодек: h.264
Качество видео: WEB-DL 1080p
Видео: AVC/H.264, 1920x1080 (16:9), ~2865 Kbps
Аудио: AC3, 2 ch, 192 Kbps


[+] M/I
General
Unique ID                   : 84173044447342117238327918486114179109 (0x3F5323809B65AD67FF8C91A7BC369825)
Complete name               : F:СериалыЛачуга должника (2017).by.АлехаndrСерия 1.by.Алехаndr.mkv
Format                      : Matroska
Format version              : Version 4 / Version 2
File size                   : 1.13 GiB
Duration                    : 51 min 49 s
Overall bit rate            : 3 118 kb/s
Writing application         : Lavf57.71.100
Writing library             : Lavf57.71.100
ErrorDetectionType          : Per level 1

Video
ID                          : 1
Format                      : AVC
Format/Info                 : Advanced Video Codec
Format profile              : High@L4
Format settings             : CABAC / 2 Ref Frames
Format settings, CABAC      : Yes
Format settings, ReFrames   : 2 frames
Codec ID                    : V_MPEG4/ISO/AVC
Duration                    : 51 min 49 s
Bit rate                    : 2 864 kb/s
Width                       : 1 920 pixels
Height                      : 1 080 pixels
Display aspect ratio        : 16:9
Frame rate mode             : Constant
Frame rate                  : 25.000 FPS
Color space                 : YUV
Chroma subsampling          : 4:2:0
Bit depth                   : 8 bits
Scan type                   : Progressive
Bits/(Pixel*Frame)          : 0.055
Stream size                 : 1.04 GiB (92%)
Default                     : Yes
Forced                      : No
Color range                 : Limited
Color primaries             : BT.709
Transfer characteristics    : BT.709
Matrix coefficients         : BT.709

Audio
ID                          : 2
Format                      : AC-3
Format/Info                 : Audio Coding 3
Codec ID                    : A_AC3
Duration                    : 51 min 49 s
Bit rate mode               : Constant
Bit rate                    : 192 kb/s
Channel(s)                  : 2 channels
Channel positions           : Front: L R
Sampling rate               : 44.1 kHz
Frame rate                  : 28.711 FPS (1536 SPF)
Bit depth                   : 16 bits
Compression mode            : Lossy
Delay relative to video     : -160 ms
Stream size                 : 71.2 MiB (6%)
Language                    : unknown
Service kind                : Complete Main
Default                     : Yes
Forced                      : No



Скриншоты:
[+] Всего файлов в раздаче - 8:
Серия 1.by.Алехаndr.mkv1.13 GB
Серия 2.by.Алехаndr.mkv1.14 GB
Серия 3.by.Алехаndr.mkv1.15 GB
Серия 4.by.Алехаndr.mkv1.11 GB
Серия 5.by.Алехаndr.mkv1.15 GB
Серия 6.by.Алехаndr.mkv1.14 GB
Серия 7.by.Алехаndr.mkv1.13 GB
Серия 8.by.Алехаndr.mkv1.28 GB

Текущая раздача:
ДатаКомментарии    РазмерПиры
2018-01-07 U Лачуга должника [01-08 из 08] (2017) WEB-DL 1080p 9.23 GB ↑ 128 ↓ 184

Показать еще раздачи по запросу лачуга:
2018-01-08 U Лачуга должника [01-08 из 08] (2017) HDTVRip 720p от MediaClub 10.56 GB ↑ 112 ↓ 75
2018-01-07 U Лачуга должника Серии 1-8 из 8 (Александр Котт) [2017, SATRip-AVC] [rutracker-5503674] 4.86 GB ↑ 4 ↓ 7
2018-01-07 U Лачуга должника [01-08 из 08] (2017) HDTV 1080i от MediaClub 21.07 GB ↑ 81 ↓ 156
2018-01-07 U Лачуга должника [01-08 из 08] (2017) WEB-DLRip-AVC от Files-x 5.17 GB ↑ 145 ↓ 124
2018-01-07 U Лачуга должника [01-08 из 08] (2017) WEBRip от GeneralFilm 3.58 GB ↑ 256 ↓ 201
2018-01-07 U Лачуга должника [01-08 из 08] (2017) WEB-DLRip от Files-x 5.08 GB ↑ 314 ↓ 243
2018-01-06 U Лачуга должника [01-04 из 08] (2017) HDTV 1080i от MediaClub 10.67 GB ↑ 159 ↓ 158

Отзывы
Зарегистрируйтесь чтобы добавить комментарий.
Обратная связь
Copyleft ©