↑↓Torrent.by
Поиск
Логин: Регистрация
Пароль: Восстановить пароль
Загрузка...

Призрачные войны / Ghost Wars [S01] (2017) WEBRip | OMSKBIRD

Скачать prizrachnye-voyny-ghost-wars-s01-2017-webrip-omskbird.torrent
U Магнитная ссылка Размер: 8.67 GB Раздают: 72 Качают: 83 Добавлен: 2018-01-07 13:16:48
Призрачные войны / Ghost Wars [S01] (2017) WEBRip | OMSKBIRD

Название: Призрачные войны / Война с призраками  
Оригинальное название: Ghost Wars
Год выхода: 2017
Жанр: Ужасы, фэнтези, драма
Режиссер: Дэвид Фон Энкен, Саймон Бэрри, Матиас Хендл
В ролях: Сара Джайлс, Эллисон Джеймс, Соня Беннет, Марина Бенитез Лаззаротто, Филип Грэйнджер, Чэнс Хурстфилд, Эндрю Моксэм, Мэдди Филлипс, Зак Сантьяго, Кармел Амит и др.
О фильме:
События разворачиваются в захолустном городке на Аляске, наводнённом сверхъестественными силами. Главный герой — местный пария Роман Мерсер, вынужденный перебороть предубеждения горожан и справиться с собственными демонами, ведь только так он сможет взять под контроль давно подавляемые сверхспособности и спасти жителей от нашествия призраков.

Страна: Канада, США
Продолжительность: ~00:43:00 серия
Перевод: Любительский (многоголосый закадровый) | OMSKBIRD records

Файл
Кодек: XviD
Качество: WEBRip
Видео: 720x304 (2.37:1), 23.976 fps, ~1800 kbps avg, 0.41 bit/pixel
Звук:
Аудио rus: AC3, 48 kHz, 2 ch, 192 Kbps | OmskBird
Субтитры: отсутствуют
Реклама: присутствует

Семпл

Релиз от: OmskBird


[+] Релиз:

Релиз-группа: OmskBird
Перевод: Татьяна Масаковская
Роли озвучивали: Павел Ярощик, Марина Гассан, Михаил Глушковский
Звукорежиссер: Павел Квентов
Постер: Ксения Просветова



[+] MediaInfo:

General
Complete name                            : G:FilmsGhost.Wars.S01.400p.WEB-DLRip.OmskBirdGhost.Wars.S01E01.WEB-DLRip.OmskBird.avi
Format                                   : AVI
Format/Info                              : Audio Video Interleave
File size                                : 582 MiB
Duration                                 : 43mn 28s
Overall bit rate                         : 1 872 Kbps
Writing application                      : VirtualDubMod 1.5.10.3 (build 2550/release)
Writing library                          : VirtualDubMod build 2550/release

Video
ID                                       : 0
Format                                   : MPEG-4 Visual
Format profile                           : Advanced Simple@L5
Format settings, BVOP                    : 1
Format settings, QPel                    : No
Format settings, GMC                     : No warppoints
Format settings, Matrix                  : Default (MPEG)
Codec ID                                 : XVID
Codec ID/Hint                            : XviD
Duration                                 : 43mn 28s
Bit rate                                 : 1 670 Kbps
Width                                    : 720 pixels
Height                                   : 304 pixels
Display aspect ratio                     : 2.35:1
Frame rate                               : 23.976 (23976/1000) fps
Color space                              : YUV
Chroma subsampling                       : 4:2:0
Bit depth                                : 8 bits
Scan type                                : Progressive
Compression mode                         : Lossy
Bits/(Pixel*Frame)                       : 0.318
Stream size                              : 519 MiB (89%)
Writing library                          : XviD 73

Audio
ID                                       : 1
Format                                   : AC-3
Format/Info                              : Audio Coding 3
Mode extension                           : CM (complete main)
Format settings, Endianness              : Big
Codec ID                                 : 2000
Duration                                 : 43mn 28s
Bit rate mode                            : Constant
Bit rate                                 : 192 Kbps
Channel(s)                               : 2 channels
Channel positions                        : Front: L R
Sampling rate                            : 48.0 KHz
Frame rate                               : 31.250 fps (1536 spf)
Compression mode                         : Lossy
Stream size                              : 59.7 MiB (10%)
Alignment                                : Split accross interleaves
Interleave, duration                     : 42 ms (1.00 video frame)
Interleave, preload duration             : 500 ms




Скриншоты:
[+] Всего файлов в раздаче - 13:
Ghost.Wars.S01E01.WEB-DLRip.OmskBird.avi582.04 MB
Ghost.Wars.S01E02.WEB-DLRip.OmskBird.avi717.15 MB
Ghost.Wars.S01E03.WEB-DLRip.OmskBird.avi702.34 MB
Ghost.Wars.S01E04.WEB-DLRip.OmskBird.avi730.19 MB
Ghost.Wars.S01E05.WEB-DLRip.OmskBird.avi765.67 MB
Ghost.Wars.S01E06.WEB-DLRip.OmskBird.avi756.31 MB
Ghost.Wars.S01E07.WEB-DLRip.OmskBird.avi741.83 MB
Ghost.Wars.S01E08.WEB-DLRip.OmskBird.avi730.96 MB
Ghost.Wars.S01E09.WEB-DLRip.OmskBird.avi621.50 MB
Ghost.Wars.S01E10.WEB-DLRip.OmskBird.avi741.84 MB
Ghost.Wars.S01E11.WEB-DLRip.OmskBird.avi628.38 MB
Ghost.Wars.S01E12.WEB-DLRip.OmskBird.avi529.07 MB
Ghost.Wars.S01E13.WEB-DLRip.OmskBird.avi631.98 MB

Отзывы
Зарегистрируйтесь чтобы добавить комментарий.
Обратная связь
Copyleft ©