↑↓Torrent.by
Поиск
Логин: Регистрация
Пароль: Восстановить пароль
Загрузка...

МакМафия / McMafia [01x01-03 из 08] (2018) WEB-DL 720р | SDI Media

Скачать makmafiya-mcmafia-01x01-03-iz-08-2018-web-dl-720r-sdi-media.torrent
U Магнитная ссылка Размер: 4.88 GB Раздают: 73 Качают: 197 Добавлен: 2018-01-08 22:00:52
МакМафия / McMafia [01x01-03 из 08] (2018) WEB-DL 720р | SDI Media

Название: МакМафия
Оригинальное название: McMafia
Год выхода: 2018
Жанр: триллер, драма, криминал
Режиссер: Джеймс Уоткинс

В ролях: Джеймс Нортон, Дэвид Стрэтэйрн, Джульет Райлэнс, Алексей Серебряков, Мария Шукшина, Ошри Коэн, Мераб Нинидзе, Клиффорд Сэмюэл, Юваль Шарф, Атул Кейл и др.

О сериале: У Александра Гудмана русские корни. Его семья когда-то покинула родину для того, чтобы в новой стране обеспечить потомкам достойную жизнь. Людям чаще всего нужны веские основания для эмиграции. У семьи Александра они были. После эмиграции власть и деньги стали приоритетом, а преступление – способом их получить. Озлобленность, агрессия к государственным властям, законам и социальным рамкам привела к тому, что появился новый мафиозный клан. Независимо от экономической ситуации на международном финансовом рынке, от политики президента и внешнеполитического курса обеспечивать выживание своим близким любой ценой – закон для семьи. Быть членом одного из кланов русской мафии нелегко. Родившемуся в такой семье ребёнку сложно победить, отстоять право на инакомыслие, обрести самостоятельность. Александр мог бы стать главой клана однажды, но решил, всё же, рискнуть, сказать «нет» своим родителям и прочим родственникам. Он влюбился и одурманенный этим чувством решил жить как все – создать свой собственный бизнес, рекламировать его, платить налоги, преодолевать возражения, передать его по наследству детям, ни разу не попав за долгие годы спокойной, счастливой жизни в тюрьму. Однако волею случая он оказался на краю пропасти. Он обязан стать мафиози, притвориться им, ведь только так он сможет спасти свою любовь.

Страна: США, Великобритания  
Производство: American Movie Classics (AMC), British Broadcasting Corporation (BBC)
Продолжительность: ~00:50:00
Перевод: Профессиональный (многоголосый закадровый) SDI Media
Субтитры: Отсутствуют
Примечание:Рекламы нет!

Файл
Формат: MKV
Качество: WEB-DL 720р

Видео: MPEG-4 AVC, ~ 4000 Кбит/с, 1280x720
Аудио RUS: AC3, 2 ch, 192 Кбит/с
Аудио ENG:  AC3, 2 ch, 640 Кбит/с


[+] MediaInfo
Общее
Уникальный идентификатор                 : 193901096090265553520078235950189118783 (0x91DFFE22F6395712B2F23507C770053F)
Полное имя                               : Ma41a.S01E01.720p.SD1.Med1a.mkv
Формат                                   : Matroska
Версия формата                           : Version 4 / Version 2
Размер файла                             : 1,93 Гбайт
Продолжительность                        : 56 м. 13 с.
Общий поток                              : 4925 Кбит/сек
Дата кодирования                         : UTC 2018-01-04 07:11:54
Программа кодирования                    : mkvmerge v8.3.0 ('Over the Horizon') 64bit
Библиотека кодирования                   : libebml v1.3.1 + libmatroska v1.4.2

Видео
Идентификатор                            : 1
Формат                                   : AVC
Формат/Информация                        : Advanced Video Codec
Профиль формата                          : High@L4.1
Настройки формата                        : CABAC / 9 Ref Frames
Параметр CABAC формата                   : Да
Параметр RefFrames формата               : 9 кадров
Идентификатор кодека                     : V_MPEG4/ISO/AVC
Продолжительность                        : 56 м. 13 с.
Битрейт                                  : 4091 Кбит/сек
Ширина                                   : 1280 пикселей
Высота                                   : 720 пикселей
Соотношение сторон                       : 16:9
Режим частоты кадров                     : Постоянный
Частота кадров                           : 25,000 кадров/сек
Цветовое пространство                    : YUV
Субдискретизация насыщенности            : 4:2:0
Битовая глубина                          : 8 бит
Тип развёртки                            : Прогрессивная
Бит/(Пиксели*Кадры)                      : 0.178
Размер потока                            : 1,61 Гбайт (83%)
Библиотека кодирования                   : x264 core 148 r2744 b97ae06
Настройки программы                      : cabac=1 / ref=9 / deblock=1:-3:-3 / analyse=0x3:0x133 / me=umh / subme=10 / psy=1 / psy_rd=1.00:0.00 / mixed_ref=1 / me_range=48 / chroma_me=1 / trellis=2 / 8x8dct=1 / cqm=0 / deadzone=21,11 / fast_pskip=0 / chroma_qp_offset=-2 / threads=12 / lookahead_threads=2 / sliced_threads=0 / nr=0 / decimate=0 / interlaced=0 / bluray_compat=0 / constrained_intra=0 / bframes=9 / b_pyramid=0 / b_adapt=2 / b_bias=0 / direct=3 / weightb=1 / open_gop=0 / weightp=2 / keyint=250 / keyint_min=25 / scenecut=40 / intra_refresh=0 / rc_lookahead=60 / rc=crf / mbtree=0 / crf=17.0 / qcomp=0.60 / qpmin=10 / qpmax=51 / qpstep=4 / vbv_maxrate=62500 / vbv_bufsize=78125 / crf_max=0.0 / nal_hrd=none / filler=0 / ip_ratio=1.40 / pb_ratio=1.30 / aq=3:0.70
Default                                  : Да
Forced                                   : Нет

Аудио #1
Идентификатор                            : 2
Формат                                   : AC-3
Формат/Информация                        : Audio Coding 3
Идентификатор кодека                     : A_AC3
Продолжительность                        : 56 м. 12 с.
Вид битрейта                             : Постоянный
Битрейт                                  : 192 Кбит/сек
Каналы                                   : 2 канала
Расположение каналов                     : Front: L R
Частота                                  : 48,0 КГц
Частота кадров                           : 31,250 кадров/сек (1536 SPF)
Битовая глубина                          : 16 бит
Метод сжатия                             : С потерями
Размер потока                            : 77,2 Мбайт (4%)
Язык                                     : Russian
Default                                  : Да
Forced                                   : Нет

Аудио #2
Идентификатор                            : 3
Формат                                   : E-AC-3
Формат/Информация                        : Enhanced Audio Coding 3
Идентификатор кодека                     : A_EAC3
Продолжительность                        : 56 м. 12 с.
Вид битрейта                             : Постоянный
Битрейт                                  : 640 Кбит/сек
Каналы                                   : 6 каналов
Расположение каналов                     : Front: L C R, Side: L R, LFE
Частота                                  : 48,0 КГц
Частота кадров                           : 187,500 кадров/сек (256 SPF)
Метод сжатия                             : С потерями
Размер потока                            : 257 Мбайт (13%)
Язык                                     : English
Default                                  : Нет
Forced                                   : Нет

Текст
Идентификатор                            : 4
Формат                                   : UTF-8
Идентификатор кодека                     : S_TEXT/UTF8
Идентификатор кодека/Информация          : UTF-8 Plain Text
Продолжительность                        : 54 м. 33 с.
Битрейт                                  : 50 бит/сек
ElementCount                             : 585
Размер потока                            : 20,2 Кбайт (0%)
Язык                                     : English
Default                                  : Нет
Forced                                   : Нет



Скриншоты:
[+] Всего файлов в раздаче - 3:
Ma41a.S01E01.720p.SD1.Med1a.mkv1.93 GB
Ma41a.S01E02.720p.SD1.Med1a.mkv1.85 GB
Ma41a.S01E03.720p.SD1.Med1a.mkv1.10 GB

Текущая раздача:
ДатаКомментарии    РазмерПиры
2018-01-08 U МакМафия / McMafia [01x01-03 из 08] (2018) WEB-DL 720р | SDI Media 4.88 GB ↑ 73 ↓ 197

Похожие раздачи по запросу - макмафия:
2018-01-03 U МакМафия / McMafia [01x01 из 08] (2018) HDTVRip 720p | ColdFilm 1.65 GB ↑ 58 ↓ 5

Отзывы
Зарегистрируйтесь чтобы добавить комментарий.
Обратная связь
Copyleft ©