↑↓Torrent.by
Поиск
Логин: Регистрация
Пароль: Восстановить пароль
Загрузка...

Охотники за караванами (2010) HDTVRip | Лицензия

Скачать ohotniki-za-karavanami-2010-hdtvrip-licenziya.torrent
U Магнитная ссылка Размер: 1.46 GB Раздают: 41 Качают: 25 Добавлен: 2018-01-09 06:44:39
Охотники за караванами (2010) HDTVRip | Лицензия

Название: Охотники за караванами
Год выхода: 2010
Жанр:  Военный, драма
Режиссер: Сергей Чекалов
В ролях: Алексей Серебряков, Андрей Саминин, Алексей Лонгин, Всеволод Хованский, Карина Андоленко, Евгения Лютая, Владимир Смирнов, Михаил Тарабукин, Иван Шибанов, Никита Емшанов, Игорь Миркурбано

О фильме: Афганистан, 1987 год. Появившиися у моджахедов переносные зенитные комплексы "Стингер" грозят положить конец господству в воздухе советской авиации. Командир разведбата майор Оковалков получает задание добыть образец этого нового оружия. Для этого ему необходимо захватить небольшой караван. Однако караван оказывается огромным, с хорошо вооруженной охраной. Поняв, что операция провалена, Оковалко принимает решение переждать прохождение колонны и вернуться в часть, но его планы нарушает автоматная очередь, случайно выпущенная молодым неопытным солдатом...

Страна: Россия
Студия: 4К по заказу Star Media
Продолжительность: 03:03:43
Перевод: Не требуется (оригинальный, русский)

Файл
Формат: avi
Качество: HDTVRip (HDTV.1080)
Видео: XviD, 656x368, 25fps, 1000kbps
Аудио: MPEG Layer 3, 2ch, 48000Hz, 128kbps

Релиз:


[+] MediaInfo

Общее
Полное имя                               : Ohotniki.Za.Karavanami.2010.O.HDTVRip.1400.CurHaJI.avi
Формат                                   : AVI
Формат/Информация                        : Audio Video Interleave
Размер файла                             : 1,46 Гбайт
Продолжительность                        : 3 ч. 3 м.
Общий поток                              : 1138 Кбит/сек
Название фильма                          : Ohotniki.Za.Karavanami.2010.O.HDTVRip.1400.CurHaJI
Программа кодирования                    : VirtualDubMod 1.5.10.3 | www.virtualdub-fr.org || (build 2550/release)
Библиотека кодирования                   : VirtualDub build 35491/release

Видео
Идентификатор                            : 0
Формат                                   : MPEG-4 Visual
Профиль формата                          : Advanced Simple@L5
Параметр BVOP формата                    : 1
Параметр QPel формата                    : Нет
Параметр GMC формата                     : Без точки перехода
Параметр матрицы формата                 : Выборочная
Идентификатор кодека                     : XVID
Идентификатор кодека/Подсказка           : XviD
Продолжительность                        : 3 ч. 3 м.
Битрейт                                  : 1000 Кбит/сек
Ширина                                   : 656 пикселей
Высота                                   : 368 пикселей
Соотношение сторон                       : 16:9
Частота кадров                           : 25,000 кадров/сек
Цветовое пространство                    : YUV
Субдискретизация насыщенности            : 4:2:0
Битовая глубина                          : 8 бит
Тип развёртки                            : Прогрессивная
Метод сжатия                             : С потерями
Бит/(Пиксели*Кадры)                      : 0.166
Размер потока                            : 1,28 Гбайт (88%)
Библиотека кодирования                   : XviD 73

Аудио
Идентификатор                            : 1
Формат                                   : MPEG Audio
Версия формата                           : Version 1
Профиль формата                          : Layer 3
Идентификатор кодека                     : 55
Идентификатор кодека/Подсказка           : MP3
Продолжительность                        : 3 ч. 3 м.
Вид битрейта                             : Постоянный
Битрейт                                  : 128 Кбит/сек
Каналы                                   : 2 канала
Частота                                  : 48,0 КГц
Метод сжатия                             : С потерями
Размер потока                            : 168 Мбайт (11%)
Выравнивание                             : Соединение по промежуткам
Продолжительность промежутка             : 40  мс. (1,00 видеокадр)
Время предзагрузки промежутка            : 504  мс.
Библиотека кодирования                   : LAME3.99r
Настройки программы                      : -m s -V 4 -q 2 -lowpass 17 -b 128



Скриншоты:
[+] Всего файлов в раздаче - 1:
Ohotniki.Za.Karavanami.2010.O.HDTVRip.1400.CurHaJI.avi1.46 GB

Текущая раздача:
ДатаКомментарии    РазмерПиры
2018-01-09 U Охотники за караванами (2010) HDTVRip | Лицензия 1.46 GB ↑ 41 ↓ 25

Показать еще раздачи по запросу охотники:
2017-12-28 U Охотники на троллей / Trollhunters [02x01-04 из 13] (2017) WEBRip 1080p | AlexFilm 3.66 GB ↑ 36 ↓ 25
2017-12-22 U Охотники на троллей / Trollhunters [S02] (2017) WEBRip 720р | L2 5.80 GB ↑ 80 ↓ 55
2017-12-19 U Ник Перумов - Охотники. Мегалиты Империи (2017) MP3 303.83 MB ↑ 67 ↓ 4
2017-12-07 U Охотники за головами / Bounty Huntersl [S01] (2017) HDTVRip-AVC | Ozz 3.39 GB ↑ 61 ↓ 23
2017-09-12 U Охотники на гангстеров / Gangster Squad (2013) BDRip 1080p от HELLYWOOD | D, A 7.37 GB ↑ 71 ↓ 22
2017-07-22 U Охотники за тайнами 13: Воспоминания о Шадоуфилде. Коллекционное издание (2017) PC 948.58 MB ↑ 103 ↓ 35
2017-07-07 U Охотники за кровью / Blood Hunters / One Drop (2016) WEB-DLRip | L1 2К1.46 GB ↑ 89 ↓ 25

Отзывы
Зарегистрируйтесь чтобы добавить комментарий.
Обратная связь
Copyleft ©