↑↓Torrent.by
Поиск
Логин: Регистрация
Пароль: Восстановить пароль
Загрузка...

А в России опять окаянные дни (1990) VHSRip

Скачать a-v-rossii-opyat-okayannye-dni-1990-vhsrip.torrent
U Магнитная ссылка Размер: 1.46 GB Раздают: 42 Качают: 18 Добавлен: 2018-01-09 12:56:58
А в России опять окаянные дни (1990) VHSRip

Название: А в России опять окаянные дни
Оригинальное название: А в России опять окаянные дни
Год выхода: 1990
Режиссер: Владимир Васильков
В ролях: Татьяна Ипатова, Евгений Белоногов, Михаил Боровков, Михаил Иванов, Сергей Малёнов, Геннадий Венгеров, Галина Доля, Сергей Друзьяк, Николай Волошин, Надежда Евдокимова , Сергей Чернов, Ируте Венгалите, Виктор Саракваша, Иван Морозов, Леонид Трушко, Виктор Евграфов, Сергей Белякович, Ольга Прокофьева, Михаил Левкоев, Алексей Аблепихин, Анатолий Мамбетов

О фильме:
Виктор Бурдин требует от КГБ полной ясности: когда и при каких обстоятельствах погиб его отец, ныне реабилитированный. Фильм вводит в атмосферу сталинского лагеря 1948 года, знакомит с колоритными фигурами заключенных, от безвинно-политических до матерых уголовников, кем и оказывается по существу дед Виктора, — бывший начальник лагеря и отец его матери, которая имела смелость любить политзаключенного.

P.S. Фильм на грани вымирания! В сети его нет, кроме варианта с ужасным качеством. Эту копию записал мой отец в далёкие 1990-е на видеокассету. Много позднее фильм был передан мне. В фильме играет мой родной дядя - Сергей Малёнов. Поэтому для нашей семьи это не просто кино - это часть нас! Качество тоже оставляет желать лучшего, однако, смотрибельно, понятен сюжет и смысл фильма. Раздача создана с целью найти вариант фильма с хорошим качеством. Мы будем очень рады любой информации! Заранее спасибо!

Страна: Россия
Продолжительность: 02:02:31
Перевод: Оригинал

Файл
Кодек: XviD
Качество: VHSRip
Видео: 704x528 (1.33:1), 25 fps, XviD build 73 ~1509 kbps avg, 0.16 bit/pixel
Звук: 48 kHz, AC3 Dolby Digital, 2/0 (L,R) ch, ~192 kbps
Субтитры: Нет

Релиз:


[+] MediaInfo:

А в России опять окоянные дни [by alenavova].avi
Format : AVI
Format/Info : Audio Video Interleave
File size : 1.46 GiB
Duration : 2 h 2 min
Overall bit rate : 1 711 kb/s
Movie name : А в России опять окоянные дни [by alenavova]
Director : by alenavova
Writing application : VirtualDubMod 1.5.10.3 | www.virtualdub-fr.org || (build 2550/release)
Copyright : Edich2
Comment : RuTracker.org

Video
ID : 0
Format : MPEG-4 Visual
Format profile : Advanced Simple@L5
Format settings, BVOP : 2
Format settings, QPel : No
Format settings, GMC : No warppoints
Format settings, Matrix : Custom
Codec ID : XVID
Codec ID/Hint : XviD
Duration : 2 h 2 min
Bit rate : 1 509 kb/s
Width : 704 pixels
Height : 528 pixels
Display aspect ratio : 4:3
Frame rate : 25.000 FPS
Color space : YUV
Chroma subsampling : 4:2:0
Bit depth : 8 bits
Scan type : Progressive
Compression mode : Lossy
Bits/(Pixel*Frame) : 0.162
Stream size : 1.29 GiB (88%)
Writing library : XviD 73

Audio
ID : 1
Format : AC-3
Format/Info : Audio Coding 3
Format settings, Endianness : Big
Codec ID : 2000
Duration : 2 h 2 min
Bit rate mode : Constant
Bit rate : 192 kb/s
Channel(s) : 2 channels
Channel positions : Front: L R
Sampling rate : 48.0 kHz
Frame rate : 31.250 FPS (1536 spf)
Bit depth : 16 bits
Compression mode : Lossy
Stream size : 168 MiB (11%)
Alignment : Split accross interleaves
Interleave, duration : 40 ms (1.00 video frame)
Interleave, preload duratio : 500 ms
Service kind : Complete Main



Скриншоты:
[+] Всего файлов в раздаче - 1:
А в России опять окоянные дни [by alenavova].avi1.46 GB

Текущая раздача:
ДатаКомментарии    РазмерПиры
2018-01-09 U А в России опять окаянные дни (1990) VHSRip 1.46 GB ↑ 42 ↓ 18

Показать еще раздачи по запросу россии:
2018-12-13 U Однажды в России [08х01-13] (2018) WEBRip от Files-x 8.03 GB ↑ 37 ↓ 64
2018-10-12 U Однажды в России [08х01-07] (2018) WEBRip от Files-x 1К4.54 GB ↑ 123 ↓ 195
2018-10-06 U Тайна Ватиканской рукописи: великое пророчество о России (2018) SATRip 1.31 GB ↑ 255 ↓ 36
2018-10-01 U Формула 1. 2018. 16/21. Гран-при России. Гонка [Матч! Арена HD] [30.09] (2018) HDTVRip 720p | 50 fps 3.78 GB ↑ 160 ↓ 31
2018-09-30 U Формула 1. 2018. 16/21. Гран-при России. Квалификация [Матч! ТВ HD] [29.09] (2018) HDTVRip 720p | 50 fps 1.86 GB ↑ 85 ↓ 11
2018-09-21 U Однажды в России [08х01-05] (2018) WEBRip 720p от Files-x 6.39 GB ↑ 81 ↓ 185
2018-09-14 U Однажды в России [08х01-04] (2018) WEBRip 720p от Files-x 5.12 GB ↑ 34 ↓ 36

Отзывы
Зарегистрируйтесь чтобы добавить комментарий.
Обратная связь
Copyleft ©