↑↓Torrent.by
Поиск
Логин: Регистрация
Пароль: Восстановить пароль
Загрузка...

Пираты Сомали / The Pirates of Somalia (2017) WEB-DLRip | L

Скачать piraty-somali-the-pirates-of-somalia-2017-web-dlrip-l.torrent
U Магнитная ссылка Размер: 2.18 GB Раздают: 518 Качают: 535 Добавлен: 2018-01-09 18:47:05
Пираты Сомали / The Pirates of Somalia (2017) WEB-DLRip | L

Пираты Сомали / The Pirates of Somalia

Страна: Сомали  Кения  Судан  ЮАР  США
Производство: BCDF Pictures, Hungry Man, Kalahari Pictures
Год выпуска: 2017
Жанр:  драма, биография
Продолжительность: 01:57:41

Режиссер: Брайан Бакли
Автор сценария: Брайан Бакли

В ролях: Аль Пачино, Эван Питерс, Мелани Гриффит, Баркхад Абди, Расселл Познер, Корал Пенья, Киана Мадани, Филип Эттинджер, Эйдан Уайток

Описание: В 2008 году журналист-новобранец Джей Бахадур формирует полусырой план по внедрению себя в банду пиратов Сомали. В конечном счёте он добивается своего и первым смотрит изнутри на то, кто такие эти люди, как они живут, и что за силы ими управляют...

Перевод: Любительский (многоголосый, закадровый) | Синема УС
Субтитры: нет

Качество: WEB-DLRip
Формат: АVI
Видео кодек: XviD
Аудио кодек: АС3
Видео: 720x304 (2.35:1), 23.976 fps, XviD ~2 063 kbps avg
Аудио №1: 48.0 kHz, AC3 Dolby Digital, 2/0 (L,R) ch, ~192 kbps | RUS | MVO
Аудио №2: 48.0 kHz, AC3 Dolby Digital, 3/2 (L,C,R,l,r) + LFE ch, ~384 kbps | ENG

Дата премьеры (мир): 27 апреля 2017

Семпл

Благодарность за аудиодорожку: Selena_a


[+] Media Info
General
Полное имя                               : The.Pirates.of.Somalia.2017.avi
Формат                                   : AVI
Формат/Информация                        : Audio Video Interleave
Профиль формата                          : OpenDML
Размер файла                             : 2,18 Гбайт
Продолжительность                        : 1 ч. 57 м.
Общий поток                              : 2657 Кбит/сек
Программа кодирования                    : VirtualDubMod 1.5.10.2 (build 2542/release)
Библиотека кодирования                   : VirtualDubMod build 2542/release

Видео
Идентификатор                            : 0
Формат                                   : MPEG-4 Visual
Профиль формата                          : Advanced Simple@L5
Параметр BVOP формата                    : 2
Параметр QPel формата                    : Нет
Параметр GMC формата                     : Без точки перехода
Параметр матрицы формата                 : Выборочная
Идентификатор кодека                     : XVID
Идентификатор кодека/Подсказка           : XviD
Продолжительность                        : 1 ч. 57 м.
Битрейт                                  : 2063 Кбит/сек
Ширина                                   : 720 пикселей
Высота                                   : 304 пикселя
Соотношение сторон                       : 2,35:1
Частота кадров                           : 23,976 кадра/сек
Цветовое пространство                    : YUV
Субдискретизация насыщенности            : 4:2:0
Битовая глубина                          : 8 бит
Тип развёртки                            : Прогрессивная
Метод сжатия                             : С потерями
Бит/(Пиксели*Кадры)                      : 0.393
Размер потока                            : 1,70 Гбайт (78%)
Библиотека кодирования                   : XviD 65

Аудио #1
Идентификатор                            : 1
Формат                                   : AC-3
Формат/Информация                        : Audio Coding 3
Расширение режима                        : CM (complete main)
Параметр Endianness формата              : Big
Идентификатор кодека                     : 2000
Продолжительность                        : 1 ч. 57 м.
Вид битрейта                             : Постоянный
Битрейт                                  : 192 Кбит/сек
Каналы                                   : 2 канала
Расположение каналов                     : Front: L R
Частота                                  : 48,0 КГц
Битовая глубина                          : 16 бит
Метод сжатия                             : С потерями
Размер потока                            : 162 Мбайт (7%)
Выравнивание                             : Разделение по промежуткам
Продолжительность промежутка             : 42  мс. (1,00 видеокадр)
Время предзагрузки промежутка            : 500  мс.

Аудио #2
Идентификатор                            : 2
Формат                                   : AC-3
Формат/Информация                        : Audio Coding 3
Расширение режима                        : CM (complete main)
Параметр Endianness формата              : Big
Идентификатор кодека                     : 2000
Продолжительность                        : 1 ч. 57 м.
Вид битрейта                             : Постоянный
Битрейт                                  : 384 Кбит/сек
Каналы                                   : 6 каналов
Расположение каналов                     : Front: L C R, Side: L R, LFE
Частота                                  : 48,0 КГц
Битовая глубина                          : 16 бит
Метод сжатия                             : С потерями
Размер потока                            : 323 Мбайт (14%)
Выравнивание                             : Разделение по промежуткам
Продолжительность промежутка             : 42  мс. (1,00 видеокадр)
Время предзагрузки промежутка            : 500  мс.



Скриншоты:
[+] Всего файлов в раздаче - 1:
The.Pirates.of.Somalia.2017.avi2.18 GB

Текущая раздача:
ДатаКомментарии    РазмерПиры
2018-01-09 U Пираты Сомали / The Pirates of Somalia (2017) WEB-DLRip | L 2.18 GB ↑ 518 ↓ 535

Показать еще раздачи по запросу пираты:
2018-02-18 U Пираты Сомали / The Pirates of Somalia (2017) BDRemux 1080p от MediaClub | L 21.22 GB ↑ 54 ↓ 29
2018-02-17 U Пираты Сомали / The Pirates of Somalia (2017) BDRip от MegaPeer | L 1.46 GB ↑ 135 ↓ 61
2018-01-23 U Дирк Гузманн - Ледовые пираты (2018) FB2 1.42 MB ↑ 112 ↓ 3
2018-01-10 U Пираты Сомали / The Pirates of Somalia (2017) WEB-DLRip от Portablius | L 699.42 MB ↑ 141 ↓ 74
2018-01-10 U Пираты Сомали / The Pirates of Somalia (2017) WEB-DLRip-AVC от Kaztorrents | L 1.46 GB ↑ 130 ↓ 101
2018-01-09 U Пираты Сомали / The Pirates of Somalia (2017) WEB-DL 1080р | L 3К4.19 GB ↑ 301 ↓ 202
2017-12-31 U Пираты ХХ века (1979) WEB-DLRip 720p от KORSAR 5.46 GB ↑ 75 ↓ 43

Отзывы
Зарегистрируйтесь чтобы добавить комментарий.
Обратная связь
Copyleft ©