↑↓Torrent.by
Поиск
Логин: Регистрация
Пароль: Восстановить пароль
Загрузка...

Валериан и город тысячи планет / Valerian and the City of a Thousand Planets (2017) BDRip 1080p | NOR-Transfer | 60 fps

Скачать valerian-i-gorod-tysyachi-planet-and-the-city-of-a-thousand-planets-2017-bdrip-1080p-nor-transfer-60-fps.torrent
U Магнитная ссылка Размер: 20.20 GB Раздают: 46 Качают: 25 Добавлен: 2018-01-10 06:35:15
Валериан и город тысячи планет / Valerian and the City of a Thousand Planets (2017) BDRip 1080p | NOR-Transfer  | 60 fps

Валериан и город тысячи планет / Valerian and the City of a Thousand Planets
Год выпуска: 2017
Страна: Франция, Китай, Бельгия, Германия, ОАЭ, США, Великобритания, Канада
Жанр:  Фантастика, Фэнтези, Боевик, Приключения
Продолжительность: 02:16:40
Перевод: Дубляж, Оригинал
Субтитры: Русские (Форс, полные), Английские (форс, полные)

Режиссер: Люк Бессон

В ролях: Дэйн ДеХаан (Major Valerian), Кара Делевинь (Sergeant Laureline), Клайв Оуэн (Commander Arun Filitt), Рианна (Bubble), Итан Хоук (Jolly the Pimp), Херби Хэнкок (Defence Minister), Крис У (Sergeant Neza), Сэм Спруэлл (General Okto-Bar), Ален Шаба (Bob the Pirate), Рутгер Хауэр (President of the World State Federation), Питер Хадсон (Captain Crowford), Ксавье Джанноли (Captain Norton)

Описание: 2700 год. Валериан и Лорелин - космические спецагенты, которые по долгу службы впутались в подозрительное дело и стали невольными участниками то ли межгалактического заговора, то ли аферы причудливых поселенцев планеты Альфа, прибывших туда из различных миров со всех уголков галактик.

Доп. информация: Данный релиз был сделан по новой схеме, по 14-у обновлению.

Качество: BDRip 1080p / 60 FPS by Tiberiumsun69
Формат: MKV
Видео кодек: H.264
Аудио кодек: AC3
Видео: AVC, 1920x804 (2.40:1), 20000 kbps, 60.00 fps , 0.216 bbp
Аудио#1: AC3 / 5.1 / 48 kHz / 640 kbps / 16 bit | DUB - Blu-ray CEE
Аудио#2: AC3 / 5.1 / 48 kHz / 640 kbps / 16 bit | Оригинал
Семпл
[+] MediaInfo
General
Unique ID                   : 28871337336064371014478116470099067127 (0x15B86AD4E4D6D31BE79E517742DCC0F7)
Complete name               : F:ТоррентыВалериан и город тысячи планет BDRip 1080p 60fps.mkv
Format                      : Matroska
Format version              : Version 4 / Version 2
File size                   : 20.2 GiB
Duration                    : 2 h 16 min
Overall bit rate            : 21.2 Mb/s
Movie name                  : Valerian and the City of a Thousand Planets (2017) by Tiberiumsun69
Encoded date                : UTC 2018-01-09 09:31:37
Writing application         : mkvmerge v19.0.0 ('Brave Captain') 64-bit
Writing library             : libebml v1.3.5 + libmatroska v1.4.8

Video
ID                          : 1
Format                      : AVC
Format/Info                 : Advanced Video Codec
Format profile              : High@L4.2
Format settings             : CABAC / 4 Ref Frames
Format settings, CABAC      : Yes
Format settings, ReFrames   : 4 frames
Codec ID                    : V_MPEG4/ISO/AVC
Duration                    : 2 h 16 min
Bit rate mode               : Constant
Bit rate                    : 20.0 Mb/s
Width                       : 1 920 pixels
Height                      : 804 pixels
Display aspect ratio        : 2.40:1
Frame rate mode             : Constant
Frame rate                  : 60.000 FPS
Standard                    : NTSC
Color space                 : YUV
Chroma subsampling          : 4:2:0
Bit depth                   : 8 bits
Scan type                   : Progressive
Bits/(Pixel*Frame)          : 0.216
Stream size                 : 19.0 GiB (94%)
Language                    : English
Default                     : Yes
Forced                      : No
Color range                 : Limited
Color primaries             : BT.709
Transfer characteristics    : BT.709
Matrix coefficients         : BT.709

Audio #1
ID                          : 2
Format                      : AC-3
Format/Info                 : Audio Coding 3
Codec ID                    : A_AC3
Duration                    : 2 h 16 min
Bit rate mode               : Constant
Bit rate                    : 640 kb/s
Channel(s)                  : 6 channels
Channel positions           : Front: L C R, Side: L R, LFE
Sampling rate               : 48.0 kHz
Frame rate                  : 31.250 FPS (1536 SPF)
Bit depth                   : 16 bits
Compression mode            : Lossy
Stream size                 : 626 MiB (3%)
Title                       : Dub | DD 5.1 @ 640 kbps - Blu-ray RUS
Language                    : Russian
Service kind                : Complete Main
Default                     : Yes
Forced                      : No

Audio #2
ID                          : 3
Format                      : AC-3
Format/Info                 : Audio Coding 3
Codec ID                    : A_AC3
Duration                    : 2 h 16 min
Bit rate mode               : Constant
Bit rate                    : 640 kb/s
Channel(s)                  : 6 channels
Channel positions           : Front: L C R, Side: L R, LFE
Sampling rate               : 48.0 kHz
Frame rate                  : 31.250 FPS (1536 SPF)
Bit depth                   : 16 bits
Compression mode            : Lossy
Stream size                 : 626 MiB (3%)
Title                       : Original | DD 5.1 @ 640 kbps
Language                    : English
Service kind                : Complete Main
Default                     : No
Forced                      : No

Text #1
ID                          : 4
Format                      : UTF-8
Codec ID                    : S_TEXT/UTF8
Codec ID/Info               : UTF-8 Plain Text
Duration                    : 2 h 5 min
Bit rate                    : 87 b/s
Count of elements           : 1522
Stream size                 : 80.6 KiB (0%)
Language                    : Russian
Default                     : No
Forced                      : No

Text #2
ID                          : 5
Format                      : UTF-8
Codec ID                    : S_TEXT/UTF8
Codec ID/Info               : UTF-8 Plain Text
Duration                    : 3 min 44 s
Bit rate                    : 4 b/s
Count of elements           : 6
Stream size                 : 123 Bytes (0%)
Title                       : Forced
Language                    : English
Default                     : No
Forced                      : No

Text #3
ID                          : 6
Format                      : UTF-8
Codec ID                    : S_TEXT/UTF8
Codec ID/Info               : UTF-8 Plain Text
Duration                    : 2 h 5 min
Bit rate                    : 51 b/s
Count of elements           : 1499
Stream size                 : 47.1 KiB (0%)
Title                       : Full
Language                    : English
Default                     : No
Forced                      : No

Text #4
ID                          : 7
Format                      : UTF-8
Codec ID                    : S_TEXT/UTF8
Codec ID/Info               : UTF-8 Plain Text
Duration                    : 2 h 13 min
Bit rate                    : 63 b/s
Count of elements           : 1906
Stream size                 : 62.4 KiB (0%)
Title                       : SDH
Language                    : English
Default                     : No
Forced                      : No

Text #5
ID                          : 8
Format                      : UTF-8
Codec ID                    : S_TEXT/UTF8
Codec ID/Info               : UTF-8 Plain Text
Duration                    : 2 h 13 min
Bit rate                    : 67 b/s
Count of elements           : 1906
Stream size                 : 66.1 KiB (0%)
Title                       : SDH-Colored
Language                    : English
Default                     : No
Forced                      : No

Menu
00:00:00.000                : en:(01)00:00:00:000
00:11:12.880                : en:(02)00:11:12:880
00:20:11.710                : en:(03)00:20:11:710
00:30:40.171                : en:(04)00:30:40:171
00:41:24.023                : en:(05)00:41:24:023
00:51:40.430                : en:(06)00:51:40:430
01:01:58.631                : en:(07)01:01:58:631
01:10:55.208                : en:(08)01:10:55:208
01:20:32.327                : en:(09)01:20:32:327
01:34:29.413                : en:(10)01:34:29:413
01:44:41.357                : en:(11)01:44:41:357
01:57:08.729                : en:(12)01:57:08:729
02:06:25.785                : en:(13)02:06:25:785



Скриншоты:
[+] Всего файлов в раздаче - 1:
Валериан и город тысячи планет BDRip 1080p 60fps.mkv20.20 GB

Текущая раздача:
ДатаКомментарии    РазмерПиры
2018-01-10 U Валериан и город тысячи планет / Valerian and the City of a Thousand Planets (2017) BDRip 1080p | NOR-Transfer | 60 fps 20.20 GB ↑ 46 ↓ 25

Показать еще раздачи по запросу валериан:
2018-01-26 U Валериан и город тысячи планет / Valerian and the City of a Thousand Planets (2017) BDRip 720p от NNNB | 60 fps | NOR-Transfer | Лицензия 5.92 GB ↑ 51 ↓ 34
2018-01-20 U Валериан и город тысячи планет / Valerian and the City of a Thousand Planets (2017) BDRip 1080p от HELLYWOOD | NOR-Transfer | Лицензия 1К9.54 GB ↑ 78 ↓ 22
2018-01-06 U Валериан и город тысячи планет / Valerian and the City of a Thousand Planets (2017) BDRip-HEVC 2160p от HEVC CLUB | 4K | HDR | Лицензия 13.69 GB ↑ 171 ↓ 71
2018-01-06 U Валериан и город тысячи планет / Valerian and the City of a Thousand Planets (2017) BDRip-HEVC 1080p от HEVC CLUB | Локализованная версия | Лицензия 6.19 GB ↑ 64 ↓ 29
2018-01-04 U Валериан и город тысячи планет / Valerian and the City of a Thousand Planets (2017) BDRip 720p от KinoGadget | iPad | Лицензия 2.74 GB ↑ 78 ↓ 25
2018-01-02 U Валериан и город тысячи планет / Valerian and the City of a Thousand Planets (2017) BDRip-AVC от New-Team | Лицензия 2К1.48 GB ↑ 164 ↓ 49
2018-01-02 U Валериан и город тысячи планет / Valerian and the City of a Thousand Planets (2017) BDRip-AVC от HELLYWOOD | NOR-Transfer | Лицензия 2.92 GB ↑ 127 ↓ 58

Отзывы
Зарегистрируйтесь чтобы добавить комментарий.
Обратная связь
Copyleft ©