↑↓Torrent.by
Поиск
Логин: Регистрация
Пароль: Восстановить пароль
Загрузка...

Жмурки (2005) BDRip-HEVC 1080p от ХиМиК

Скачать zhmurki-2005-bdrip-hevc-1080p-ot-himik.torrent
U Магнитная ссылка Размер: 5.23 GB Раздают: 21 Качают: 24 Добавлен: 2018-01-10 06:35:58
Жмурки (2005) BDRip-HEVC 1080p от ХиМиК

Название: Жмурки
Год выхода: 2005
Жанр: триллер, комедия, криминал
Режиссер: Алексей Балабанов
В ролях: Алексей Панин, Дмитрий Дюжев, Никита Михалков, Сергей Маковецкий, Виктор Сухоруков, Дмитрий Певцов, Кирилл Пирогов, Алексей Серебряков, Андрей Мерзликин, Юрий Степанов

О фильме:
Жмурки — старинная русская игра: водящий, с завязанными глазами, ловит остальных играющих. К середине 1990-х правила игры изменились: выигрывает тот, кто останется в живых, сделав жмуриками остальных «играющих».
Нижний Новгород. Два мелких бандита Серега и Саймон работали на крупного бандюгана Сергея Михайловича. Только вот очередное его поручение парни завалили: он велел привезти химика, колдовавшего над созданием новой порции белого порошка, а Серега и Саймон устроили в лаборатории настоящую бойню, оставив там трупы — химика и парочки его охранников.
Сергей Михайлович сильно рассердился, но ограничился устным внушением, после чего дал парням другое поручение: съездить в адвокатскую контору и обменять чемоданчик с деньгами на чемоданчик с героином. Но и тут Сереге и Саймону не повезло: обмен-то состоялся, только на выходе из конторы их встретили Корон, Бала и Баклажан — три бандита, которых нанял старший лейтенант милиции Степан, «оборотень в погонах», мечтающий кинуть Сергея Михайловича на большие бабки…

Страна: Россия
Студия: Кинокомпания "СТВ"
Продолжительность: 01:49:43
Перевод: Оригинал

Файл
Кодек: HEVC x265 10 bit
Качество: BDRip-HEVC 1080p
Видео: 1920x1080 (16:9), 5296 Кбит/сек, 0.107 бит/(Пиксели*Кадры), 23,976 кадр/сек (24000/1001), HEVC (Main10@L.4.1@High) 10 бит
Звук: Русская, DTS, 1509 Кбит/сек, Front: L C R, Side: L R, LFE, 16 bit, 48,0 КГц

Семпл

Релиз от: от XuMuK


[+] MediaInfo

General
Unique ID                   : 196270614501730928654323261466647916227 (0x93A85869FC64F23AA0AAE244A096EEC3)
Complete name               : H:HEVC 210 BITЖмурки_2005_BDRip_1080p_[HEVC]_10bit.mkv
Format                      : Matroska
Format version              : Version 4 / Version 2
File size                   : 5.23 GiB
Duration                    : 1 h 51 min
Overall bit rate            : 6 729 kb/s
Encoded date                : UTC 2018-01-09 16:13:24
Writing application         : mkvmerge v18.0.0 ('Apricity') 64-bit
Writing library             : libebml v1.3.5 + libmatroska v1.4.8
Cover                       : Yes
Attachments                 : cover.png

Video
ID                          : 1
Format                      : HEVC
Format/Info                 : High Efficiency Video Coding
Format profile              : Main 10@L4.1@High
Codec ID                    : V_MPEGH/ISO/HEVC
Duration                    : 1 h 49 min
Bit rate                    : 5 296 kb/s
Width                       : 1 920 pixels
Height                      : 1 080 pixels
Display aspect ratio        : 16:9
Frame rate mode             : Constant
Frame rate                  : 23.976 (24000/1001) FPS
Color space                 : YUV
Chroma subsampling          : 4:2:0
Bit depth                   : 10 bits
Bits/(Pixel*Frame)          : 0.107
Stream size                 : 4.06 GiB (78%)
Writing library             : x265 2.6+26-b4edf9b44d23:[Windows][MSVC 1912][64 bit] 10bit
Encoding settings           : cpuid=1173503 / frame-threads=4 / numa-pools=16 / wpp / no-pmode / no-pme / no-psnr / no-ssim / log-level=2 / input-csp=1 / input-res=1920x1080 / interlace=0 / total-frames=0 / level-idc=41 / high-tier=1 / uhd-bd=0 / ref=5 / no-allow-non-conformance / no-repeat-headers / annexb / no-aud / no-hrd / info / hash=0 / no-temporal-layers / open-gop / min-keyint=23 / keyint=240 / gop-lookahead=0 / bframes=8 / b-adapt=2 / no-b-pyramid / bframe-bias=0 / rc-lookahead=60 / lookahead-slices=4 / scenecut=40 / radl=0 / no-intra-refresh / ctu=64 / min-cu-size=8 / rect / amp / max-tu-size=32 / tu-inter-depth=4 / tu-intra-depth=4 / limit-tu=2 / rdoq-level=2 / dynamic-rd=0.00 / no-ssim-rd / signhide / no-tskip / nr-intra=0 / nr-inter=0 / no-constrained-intra / no-strong-intra-smoothing / max-merge=3 / limit-refs=3 / limit-modes / me=3 / subme=7 / merange=57 / temporal-mvp / weightp / weightb / no-analyze-src-pics / deblock=-3:-3 / no-sao / no-sao-non-deblock / rd=4 / no-early-skip / no-rskip / no-fast-intra / no-tskip-fast / no-cu-lossless / no-b-intra / no-splitrd-skip / rdpenalty=0 / psy-rd=2.00 / psy-rdoq=1.00 / no-rd-refine / no-lossless / cbqpoffs=0 / crqpoffs=0 / rc=crf / crf=20.0 / qcomp=0.60 / qpstep=4 / stats-write=0 / stats-read=0 / vbv-maxrate=50000 / vbv-bufsize=50000 / vbv-init=0.9 / crf-max=0.0 / crf-min=0.0 / ipratio=1.40 / pbratio=1.30 / aq-mode=1 / aq-strength=0.50 / cutree / zone-count=1 / zones: / start-frame=154609 / end-frame=157836 / qp=35 / no-strict-cbr / qg-size=32 / no-rc-grain / qpmax=69 / qpmin=0 / no-const-vbv / sar=0 / overscan=0 / videoformat=5 / range=0 / colorprim=2 / transfer=2 / colormatrix=1 / chromaloc=0 / display-window=0 / max-cll=0,0 / min-luma=0 / max-luma=1023 / log2-max-poc-lsb=8 / vui-timing-info / vui-hrd-info / slices=1 / opt-qp-pps / opt-ref-list-length-pps / no-multi-pass-opt-rps / scenecut-bias=0.05 / no-opt-cu-delta-qp / no-aq-motion / no-hdr / no-hdr-opt / no-dhdr10-opt / analysis-save=(null) / analysis-load=(null) / analysis-reuse-level=5 / scale-factor=0 / refine-intra=0 / refine-inter=0 / refine-mv=0 / no-limit-sao / ctu-info=0 / no-lowpass-dct / refine-mv-type=0 / copy-pic=1
Default                     : Yes
Forced                      : Yes
Color range                 : Limited
Matrix coefficients         : BT.709

Audio
ID                          : 2
Format                      : DTS
Format/Info                 : Digital Theater Systems
Mode                        : 16
Format settings, Endianness : Big
Codec ID                    : A_DTS
Duration                    : 1 h 51 min
Bit rate mode               : Constant
Bit rate                    : 1 509 kb/s
Channel(s)                  : 6 channels
Channel positions           : Front: L C R, Side: L R, LFE
Sampling rate               : 48.0 kHz
Frame rate                  : 93.750 FPS (512 SPF)
Bit depth                   : 16 bits
Compression mode            : Lossy
Stream size                 : 1.17 GiB (22%)
Language                    : Russian
Default                     : Yes
Forced                      : No



Скриншоты:
[+] Всего файлов в раздаче - 1:
Жмурки_2005_BDRip_1080p_[HEVC]_10bit.mkv5.23 GB

Текущая раздача:
ДатаКомментарии    РазмерПиры
2018-01-10 U Жмурки (2005) BDRip-HEVC 1080p от ХиМиК 5.23 GB ↑ 21 ↓ 24

Похожие раздачи по запросу - жмурки:
2015-10-28 U Жмурки (2005) BDRip от HQ-ViDEO 2.18 GB ↑ 69 ↓ 7
2013-10-27 U Жмурки (2005) BDRip 15К1.45 GB ↑ 447 ↓ 19
2013-09-24 U Жмурки (2005) HDRip-AVC 744.53 MB ↑ 37 ↓ 2

Отзывы
Зарегистрируйтесь чтобы добавить комментарий.
Обратная связь
Copyleft ©