↑↓Torrent.by
Поиск
Логин: Регистрация
Пароль: Восстановить пароль
Загрузка...

Пираты Сомали / The Pirates of Somalia (2017) WEB-DLRip от Portablius | L

Скачать piraty-somali-the-pirates-of-somalia-2017-web-dlrip-ot-portablius-l.torrent
U Магнитная ссылка Размер: 699.42 MB Раздают: 141 Качают: 74 Добавлен: 2018-01-10 20:33:35
Пираты Сомали / The Pirates of Somalia (2017) WEB-DLRip от Portablius | L

Название: Пираты Сомали
Оригинальное название: The Pirates of Somalia
Год выхода: 2017
Жанр: драма, биография
Режиссер: Брайан Бакли
В ролях: Аль Пачино, Эван Питерс, Мелани Гриффит, Баркхад Абди, Расселл Познер, Корал Пенья, Киана Мадани, Филип Эттинджер, Эйдан Уайток

О фильме: В 2008 году журналист-новобранец Джей Бахадур формирует полусырой план по внедрению себя в банду пиратов Сомали. В конечном счёте он добивается своего и первым смотрит изнутри на то, кто такие эти люди, как они живут, и что за силы ими управляют...

Страна: Сомали, Кения, Судан, ЮАР, США
Студия: BCDF Pictures, Hungry Man, Kalahari Pictures
Продолжительность: 01:57:41
Перевод: Любительский (многоголосый, закадровый) | Синема УС
Субтитры: Нет

Без Рекламы!

Файл
Кодек: XviD
Качество: WEB-DLRip
Видео: 720x304 (2.37:1), 23.976 fps, XviD build 73 ~696 kbps avg, 0.13 bit/pixel
Звук: 48 kHz, MPEG Layer 3, 2 ch, ~128.00 kbps avg


[+] MediaInfo
General
Complete name               : The.Pirates.of.Somalia.2017.WEB-DLRip.ot.Portablius.avi
Format                      : AVI
Format/Info                 : Audio Video Interleave
File size                   : 699 MiB
Duration                    : 1 h 57 min
Overall bit rate            : 834 kb/s
Writing application         : VirtualDubMod 1.5.10.3 | www.virtualdub-fr.org || (build 2550/release)
Writing library             : VirtualDub build 35491/release

Video
ID                          : 0
Format                      : MPEG-4 Visual
Format profile              : Advanced Simple@L5
Format settings, BVOP       : 1
Format settings, QPel       : No
Format settings, GMC        : No warppoints
Format settings, Matrix     : Custom
Codec ID                    : XVID
Codec ID/Hint               : XviD
Duration                    : 1 h 57 min
Bit rate                    : 697 kb/s
Width                       : 720 pixels
Height                      : 304 pixels
Display aspect ratio        : 2.35:1
Frame rate                  : 23.976 (24000/1001) FPS
Original frame rate         : 23.976 (23976/1000) FPS
Color space                 : YUV
Chroma subsampling          : 4:2:0
Bit depth                   : 8 bits
Scan type                   : Progressive
Compression mode            : Lossy
Bits/(Pixel*Frame)          : 0.133
Stream size                 : 584 MiB (84%)
Writing library             : XviD 73

Audio
ID                          : 1
Format                      : MPEG Audio
Format version              : Version 1
Format profile              : Layer 3
Codec ID                    : 55
Codec ID/Hint               : MP3
Duration                    : 1 h 57 min
Bit rate mode               : Constant
Bit rate                    : 128 kb/s
Channel(s)                  : 2 channels
Sampling rate               : 48.0 kHz
Compression mode            : Lossy
Stream size                 : 107 MiB (15%)
Alignment                   : Aligned on interleaves
Interleave, duration        : 42  ms (1.00 video frame)
Interleave, preload duratio : 504  ms
Writing library             : LAME3.99r
Encoding settings           : -m s -V 4 -q 2 -lowpass 17 -b 128



Скриншоты:
[+] Всего файлов в раздаче - 1:
The.Pirates.of.Somalia.2017.WEB-DLRip.ot.Portablius.avi699.42 MB

Текущая раздача:
ДатаКомментарии    РазмерПиры
2018-01-10 U Пираты Сомали / The Pirates of Somalia (2017) WEB-DLRip от Portablius | L 699.42 MB ↑ 141 ↓ 74

Показать еще раздачи по запросу пираты:
2018-02-18 U Пираты Сомали / The Pirates of Somalia (2017) BDRemux 1080p от MediaClub | L 21.22 GB ↑ 54 ↓ 29
2018-02-17 U Пираты Сомали / The Pirates of Somalia (2017) BDRip от MegaPeer | L 1.46 GB ↑ 132 ↓ 61
2018-01-23 U Дирк Гузманн - Ледовые пираты (2018) FB2 1.42 MB ↑ 112 ↓ 3
2018-01-10 U Пираты Сомали / The Pirates of Somalia (2017) WEB-DLRip-AVC от Kaztorrents | L 1.46 GB ↑ 130 ↓ 101
2018-01-09 U Пираты Сомали / The Pirates of Somalia (2017) WEB-DL 1080р | L 3К4.19 GB ↑ 301 ↓ 202
2018-01-09 U Пираты Сомали / The Pirates of Somalia (2017) WEB-DLRip | L 2.18 GB ↑ 518 ↓ 535
2017-12-31 U Пираты ХХ века (1979) WEB-DLRip 720p от KORSAR 5.46 GB ↑ 75 ↓ 43

Отзывы
Зарегистрируйтесь чтобы добавить комментарий.
Обратная связь
Copyleft ©