↑↓Torrent.by
Поиск
Логин: Регистрация
Пароль: Восстановить пароль
Загрузка...

Дом ночных призраков / House On Haunted Hill (1999) BDRip AVC от MediaClub | D, P, P2, A

Скачать dom-nochnyh-prizrakov-house-on-haunted-hill-1999-bdrip-avc-ot-mediaclub-d-p-p2-a.torrent
U Магнитная ссылка Размер: 3.84 GB Раздают: 92 Качают: 26 Добавлен: 2018-01-10 20:33:56
Дом ночных призраков / House On Haunted Hill (1999) BDRip AVC от MediaClub | D, P, P2, A

Название: Дом ночных призраков
Оригинальное название: House On Haunted Hill
Год выхода: 1999
Жанр: Ужасы, триллер, детектив
Режиссер: Уильям Мэлоун
В ролях: Джеффри Раш, Фамке Янссен, Тэй Диггз, Питер Галлахер, Крис Кэттэн, Эли Лартер, Бриджит Уилсон, Макс Перлих, Джеффри Комбс, Дик Биби, Славица Йован, Лиза Лоб, Джеймс Марстерс

О фильме:
Эксцентричный миллионер по имени Стивен Прайс решает отметить день рождения своей горячо нелюбимой жены Эвилен в заброшенном доме с жутким прошлым. В нём много лет назад некий доктор-маньяк проводил бесчеловечные эксперименты и зверски мучил своих пациентов. Список приглашённых кто-то загадочным образом подменяет, и в дом на холме приезжают совершенно незнакомые друг другу люди. Прайс предлагает миллион долларов каждому, кто останется в доме до утра. Душераздирающая вечеринка начинается!

Страна: США
Студия: CLT-UFA International, Dark Castle Entertainment, Helkon Media AG, J&M Entertainment
Продолжительность: 01:32:42
Перевод: Дублированный, профессиональный многоголосый, профессиональный двухголосый, авторский

Файл
Кодек: x264
Качество: BDRip AVC
Видео: MPEG-4 AVC, 3500 Кбит/с, 1024x576, 23.976 кадр/с
Звук:
Аудио #1: Русский (AC3, 6 ch, 448 Кбит/с) / Дублированный
Аудио #2: Русский (AC3, 6 ch, 384 Кбит/с) / Профессиональный многоголосый (DVD Expert)
Аудио #3: Русский (AC3, 6 ch, 384 Кбит/с) / Профессиональный двухголосый
Аудио #4: Русский (AC3, 6 ch, 384 Кбит/с) / Авторский одноголосый (Андрей Гаврилов)
Аудио #5: Русский (AC3, 2 ch, 192 Кбит/с) / Авторский одноголосый (Владимир Сонькин)
Аудио #6: Русский (AC3, 2 ch, 192 Кбит/с) / Авторский одноголосый (Сергей Визгунов)
Аудио #7: Английский (AC3, 6 ch, 448 Кбит/с)
Субтитры: Русские (2 вида), английские

Семпл

Релиз: |


[+] MI
---------------------------------------------------------------------
x264 [info]: frame I:866 Avg QP:17.94 size: 74155
x264 [info]: frame P:31370 Avg QP:20.60 size: 32291
x264 [info]: frame B:101252 Avg QP:22.16 size: 13387
---------------------------------------------------------------------
General
Unique ID                                : 194644288657992433163336861513464363805 (0x926F205BF3128497A59671C369D73B1D)
Complete name                            : House.on.Haunted.Hill.1999.BDRip.AVC.MediaClub.mkv
Format                                   : Matroska
Format version                           : Version 4 / Version 2
File size                                : 3.84 GiB
Duration                                 : 1h 32mn
Overall bit rate                         : 5 935 Kbps
Movie name                               : release MediaClub - MINION
Encoded date                             : UTC 2015-02-22 17:03:55
Writing application                      : mkvmerge v7.5.0 ('Glass Culture') 64bit built on Jan  4 2015 16:48:44
Writing library                          : libebml v1.3.1 + libmatroska v1.4.2
DURATION                                 : 01:32:41.984000000
NUMBER_OF_FRAMES                         : 173812
NUMBER_OF_BYTES                          : 133487616
_STATISTICS_WRITING_APP                  : mkvmerge v7.5.0 ('Glass Culture') 64bit built on Jan  4 2015 16:48:44
_STATISTICS_WRITING_DATE_UTC             : 2015-02-22 17:03:55
_STATISTICS_TAGS                         : BPS DURATION NUMBER_OF_FRAMES NUMBER_OF_BYTES

Video
ID                                       : 1
Format                                   : AVC
Format/Info                              : Advanced Video Codec
Format profile                           : High@L4.1
Format settings, CABAC                   : Yes
Format settings, ReFrames                : 10 frames
Codec ID                                 : V_MPEG4/ISO/AVC
Duration                                 : 1h 32mn
Bit rate                                 : 3 500 Kbps
Width                                    : 1 024 pixels
Height                                   : 576 pixels
Display aspect ratio                     : 16:9
Frame rate mode                          : Constant
Frame rate                               : 24.000 fps
Color space                              : YUV
Chroma subsampling                       : 4:2:0
Bit depth                                : 8 bits
Scan type                                : Progressive
Bits/(Pixel*Frame)                       : 0.247
Stream size                              : 2.19 GiB (57%)
Title                                    : House on Haunted Hill 1999 BDRip AVC [MediaClub - MINION]
Writing library                          : x264 core 142 r2431 ac76440
Encoding settings                        : cabac=1 / ref=10 / deblock=1:-3:-3 / analyse=0x3:0x133 / me=umh / subme=11 / psy=1 / psy_rd=1.00:0.10 / mixed_ref=1 / me_range=48 / chroma_me=1 / trellis=2 / 8x8dct=1 / cqm=0 / deadzone=21,11 / fast_pskip=0 / chroma_qp_offset=-3 / threads=6 / lookahead_threads=1 / sliced_threads=0 / nr=0 / decimate=0 / interlaced=0 / bluray_compat=0 / constrained_intra=0 / bframes=12 / b_pyramid=2 / b_adapt=2 / b_bias=0 / direct=3 / weightb=1 / open_gop=0 / weightp=2 / keyint=240 / keyint_min=24 / scenecut=40 / intra_refresh=0 / rc=2pass / mbtree=0 / bitrate=3500 / ratetol=1.0 / qcomp=0.60 / qpmin=10 / qpmax=51 / qpstep=4 / cplxblur=20.0 / qblur=0.5 / ip_ratio=1.40 / pb_ratio=1.30 / aq=1:1.00
Language                                 : English
Default                                  : Yes
Forced                                   : No
DURATION                                 : 01:32:42.000000000
NUMBER_OF_FRAMES                         : 133488
NUMBER_OF_BYTES                          : 2432664425
_STATISTICS_WRITING_APP                  : mkvmerge v7.5.0 ('Glass Culture') 64bit built on Jan  4 2015 16:48:44
_STATISTICS_WRITING_DATE_UTC             : 2015-02-22 17:03:55
_STATISTICS_TAGS                         : BPS DURATION NUMBER_OF_FRAMES NUMBER_OF_BYTES

Audio #1
ID                                       : 2
Format                                   : AC-3
Format/Info                              : Audio Coding 3
Mode extension                           : CM (complete main)
Format settings, Endianness              : Big
Codec ID                                 : A_AC3
Duration                                 : 1h 32mn
Bit rate mode                            : Constant
Bit rate                                 : 448 Kbps
Channel(s)                               : 6 channels
Channel positions                        : Front: L C R, Side: L R, LFE
Sampling rate                            : 48.0 KHz
Bit depth                                : 16 bits
Compression mode                         : Lossy
Stream size                              : 297 MiB (8%)
Title                                    : Дубляж
Language                                 : Russian
Default                                  : Yes
Forced                                   : No

Audio #2
ID                                       : 3
Format                                   : AC-3
Format/Info                              : Audio Coding 3
Mode extension                           : CM (complete main)
Format settings, Endianness              : Big
Codec ID                                 : A_AC3
Duration                                 : 1h 32mn
Bit rate mode                            : Constant
Bit rate                                 : 384 Kbps
Channel(s)                               : 6 channels
Channel positions                        : Front: L C R, Side: L R, LFE
Sampling rate                            : 48.0 KHz
Bit depth                                : 16 bits
Compression mode                         : Lossy
Stream size                              : 255 MiB (6%)
Title                                    : MVO - DVD Expert
Language                                 : Russian
Default                                  : No
Forced                                   : No

Audio #3
ID                                       : 4
Format                                   : AC-3
Format/Info                              : Audio Coding 3
Mode extension                           : CM (complete main)
Format settings, Endianness              : Big
Codec ID                                 : A_AC3
Duration                                 : 1h 32mn
Bit rate mode                            : Constant
Bit rate                                 : 384 Kbps
Channel(s)                               : 6 channels
Channel positions                        : Front: L C R, Side: L R, LFE
Sampling rate                            : 48.0 KHz
Bit depth                                : 16 bits
Compression mode                         : Lossy
Stream size                              : 255 MiB (6%)
Title                                    : DVO
Language                                 : Russian
Default                                  : No
Forced                                   : No

Audio #4
ID                                       : 5
Format                                   : AC-3
Format/Info                              : Audio Coding 3
Mode extension                           : CM (complete main)
Format settings, Endianness              : Big
Codec ID                                 : A_AC3
Duration                                 : 1h 32mn
Bit rate mode                            : Constant
Bit rate                                 : 384 Kbps
Channel(s)                               : 6 channels
Channel positions                        : Front: L C R, Side: L R, LFE
Sampling rate                            : 48.0 KHz
Bit depth                                : 16 bits
Compression mode                         : Lossy
Stream size                              : 255 MiB (6%)
Title                                    : AVO - Андрей Гаврилов
Language                                 : Russian
Default                                  : No
Forced                                   : No

Audio #5
ID                                       : 6
Format                                   : AC-3
Format/Info                              : Audio Coding 3
Mode extension                           : CM (complete main)
Format settings, Endianness              : Big
Codec ID                                 : A_AC3
Duration                                 : 1h 32mn
Bit rate mode                            : Constant
Bit rate                                 : 192 Kbps
Channel(s)                               : 2 channels
Channel positions                        : Front: L R
Sampling rate                            : 48.0 KHz
Bit depth                                : 16 bits
Compression mode                         : Lossy
Stream size                              : 127 MiB (3%)
Title                                    : AVO - Владимир Сонькин
Language                                 : Russian
Default                                  : No
Forced                                   : No

Audio #6
ID                                       : 7
Format                                   : AC-3
Format/Info                              : Audio Coding 3
Mode extension                           : CM (complete main)
Format settings, Endianness              : Big
Codec ID                                 : A_AC3
Duration                                 : 1h 32mn
Bit rate mode                            : Constant
Bit rate                                 : 192 Kbps
Channel(s)                               : 2 channels
Channel positions                        : Front: L R
Sampling rate                            : 48.0 KHz
Bit depth                                : 16 bits
Compression mode                         : Lossy
Stream size                              : 127 MiB (3%)
Title                                    : AVO - Сергей Визгунов (VHS)
Language                                 : Russian
Default                                  : No
Forced                                   : No

Audio #7
ID                                       : 8
Format                                   : AC-3
Format/Info                              : Audio Coding 3
Mode extension                           : CM (complete main)
Format settings, Endianness              : Big
Codec ID                                 : A_AC3
Duration                                 : 1h 32mn
Bit rate mode                            : Constant
Bit rate                                 : 448 Kbps
Channel(s)                               : 6 channels
Channel positions                        : Front: L C R, Side: L R, LFE
Sampling rate                            : 48.0 KHz
Bit depth                                : 16 bits
Compression mode                         : Lossy
Stream size                              : 297 MiB (8%)
Language                                 : English
Default                                  : No
Forced                                   : No

Text #1
ID                                       : 9
Format                                   : UTF-8
Codec ID                                 : S_TEXT/UTF8
Codec ID/Info                            : UTF-8 Plain Text
Title                                    : R5
Language                                 : Russian
Default                                  : Yes
Forced                                   : No

Text #2
ID                                       : 10
Format                                   : UTF-8
Codec ID                                 : S_TEXT/UTF8
Codec ID/Info                            : UTF-8 Plain Text
Language                                 : Russian
Default                                  : No
Forced                                   : No

Text #3
ID                                       : 11
Format                                   : UTF-8
Codec ID                                 : S_TEXT/UTF8
Codec ID/Info                            : UTF-8 Plain Text
Language                                 : English
Default                                  : No
Forced                                   : No

Menu
00:00:00.000                             : en:00:00:00.000
00:07:05.167                             : en:00:07:05.167
00:11:44.917                             : en:00:11:44.917
00:18:07.000                             : en:00:18:07.000
00:22:55.167                             : en:00:22:55.167
00:29:53.208                             : en:00:29:53.208
00:35:50.667                             : en:00:35:50.667
00:41:00.042                             : en:00:41:00.042
00:47:22.958                             : en:00:47:22.958
00:52:36.042                             : en:00:52:36.042
00:59:24.458                             : en:00:59:24.458
01:05:42.667                             : en:01:05:42.667
01:09:47.042                             : en:01:09:47.042
01:15:04.458                             : en:01:15:04.458
01:21:32.792                             : en:01:21:32.792
01:28:29.917                             : en:01:28:29.917



Скриншоты:
[+] Всего файлов в раздаче - 1:
House.on.Haunted.Hill.1999.BDRip.AVC.MediaClub.mkv3.84 GB

Текущая раздача:
ДатаКомментарии    РазмерПиры
2018-01-10 U Дом ночных призраков / House On Haunted Hill (1999) BDRip AVC от MediaClub | D, P, P2, A 3.84 GB ↑ 92 ↓ 26

Похожие раздачи по запросу - ночных:
2018-02-11 U Возвращение в дом ночных призраков / Return to House on Haunted Hill (2007) BDRip-AVC | P 2.11 GB ↑ 28 ↓ 8
2016-03-19 U Хелен Келлер против ночных волков / Helen Keller vs. Nightwolves (2015) WEBRip | L2 1.37 GB ↑ 274 ↓ 144
2013-11-09 U Легенды ночных стражей / Legend of the Guardians: The Owls of Ga’Hoole (2010) HDRip 25К1.37 GB ↑ 284 ↓ 5

Отзывы
Зарегистрируйтесь чтобы добавить комментарий.
Обратная связь
Copyleft ©