↑↓Torrent.by
Поиск
Логин: Регистрация
Пароль: Восстановить пароль
Загрузка...

Рифаген / Riphagen (2016) WEB-DLRip 720p | L

Скачать rifagen-riphagen-2016-web-dlrip-720p-l.torrent
U Магнитная ссылка Размер: 4.01 GB Раздают: 45 Качают: 45 Добавлен: 2018-01-11 10:16:48
Рифаген / Riphagen (2016) WEB-DLRip 720p | L

Наименование: Рифаген
Оригинальное Наименование: Riphagen
Произведено: Нидерланды
Категория: драма, военный
Режиссер постановщик: Питер Койперс
В главных ролях: Йерун ван Конингсбругге,  Кай Грейданус, Анна Радсвелд, Сигрид Тен Нейпел, Хуб Смит, Боб Ступ, Тьеббо Герритсма

О фильме: Этот фильм расскажет про Рифагена, голландского предателя времён Второй Мировой, который помогал нацистам в поимке евреев, а затем присваивал все их ценности себе. Он уничтожал группы сопротивления и заставил тех, кто искал правосудия после войны, выглядеть дураками.

Файл
Качество: WEB-DLRip 720p
Видео данные: MKV, 1280x528 (2:40:1), 25.000  fps,  4000 Кбит/с
Аудио данные: AC3, 2 ch, 384 Кбит/с
Перевод: Любительский многоголосый (GreenРай Studio)
Продолжительность: 02:12:08

Над релизом работали:
Состав дикторов: Илья Кочетков, Дмитрий Карабасов и Екатерина Костина
Руководитель проекта и координатор: Евгений Овчаренко
Организатор и координатор: Никита Марков
Пиар менеджер студии: Игорь Обухов
Техническая поддержка: Александр Методий
Над переводом работала: Анна Сташкова

ВНИМАНИЕ! Присутствует реклама!

Релиз:


[+] Mediainfo
General
Unique ID                   : 201238488370841015114304166620266371318 (0x97651F819FDD9B6E87DBC699C86A18F6)
Complete name               : D:РипагенRiphagen.2016.P.WEB-DL.720p.mkv
Format                      : Matroska
Format version              : Version 4 / Version 2
File size                   : 4.01 GiB
Duration                    : 2 h 12 min
Overall bit rate mode       : Constant
Overall bit rate            : 4 342 kb/s
Encoded date                : UTC 2018-01-09 12:40:02
Writing application         : mkvmerge v8.3.0 ('Over the Horizon') 64bit
Writing library             : libebml v1.3.1 + libmatroska v1.4.2

Video
ID                          : 1
Format                      : AVC
Format/Info                 : Advanced Video Codec
Format profile              : Main@L3.1
Format settings, CABAC      : Yes
Format settings, ReFrames   : 3 frames
Codec ID                    : V_MPEG4/ISO/AVC
Duration                    : 2 h 12 min
Bit rate mode               : Constant
Bit rate                    : 4 000 kb/s
Width                       : 1 280 pixels
Height                      : 528 pixels
Display aspect ratio        : 2.40:1
Frame rate mode             : Constant
Frame rate                  : 25.000 FPS
Standard                    : NTSC
Color space                 : YUV
Chroma subsampling          : 4:2:0
Bit depth                   : 8 bits
Scan type                   : Progressive
Bits/(Pixel*Frame)          : 0.237
Stream size                 : 3.65 GiB (91%)
Language                    : English
Default                     : Yes
Forced                      : No
Color range                 : Limited

Audio
ID                          : 2
Format                      : AC-3
Format/Info                 : Audio Coding 3
Mode extension              : CM (complete main)
Format settings, Endianness : Big
Codec ID                    : A_AC3
Duration                    : 2 h 12 min
Bit rate mode               : Constant
Bit rate                    : 384 kb/s
Channel(s)                  : 2 channels
Channel positions           : Front: L R
Sampling rate               : 48.0 kHz
Frame rate                  : 31.250 FPS (1536 spf)
Compression mode            : Lossy
Stream size                 : 363 MiB (9%)
Default                     : Yes
Forced                      : No



Скриншоты:
[+] Всего файлов в раздаче - 1:
Riphagen.2016.P.WEB-DL.720p.mkv4.01 GB

Текущая раздача:
ДатаКомментарии    РазмерПиры
2018-01-11 U Рифаген / Riphagen (2016) WEB-DLRip 720p | L 4.01 GB ↑ 45 ↓ 45

Похожие раздачи по запросу - рифаген:
2018-01-11 U Рифаген / Riphagen (2016) WEB-DLRip | L 2.05 GB ↑ 101 ↓ 75

Отзывы
Зарегистрируйтесь чтобы добавить комментарий.
Обратная связь
Copyleft ©