↑↓Torrent.by
Поиск
Логин: Регистрация
Пароль: Восстановить пароль
Загрузка...

Битва за Россию / The Battle of Russia (1943) WEBRip 1080p

Скачать bitva-za-rossiyu-the-battle-of-russia-1943-webrip-1080p.torrent
U Магнитная ссылка Размер: 3.86 GB Раздают: 48 Качают: 5 Добавлен: 2018-01-11 10:18:43
Битва за Россию / The Battle of Russia (1943) WEBRip 1080p

Название: Битва за Россию
Оригинальное название: The Battle of Russia
Год выхода: 1943
Жанр: Документальный, История, Военный
Режиссер: Фрэнк Капра

О фильме:
В этом фильме, номинированном на Оскар, мы увидим борьбу России с захватчиками на протяжении всей ее истории. Сила русского характера была ключом к победе этой страны над немецкими завоевателями во время самых кровавых битв Второй мировой войны. Эта картина является прекрасной компиляцией аутентичных материалов из архивов США, а также различных советских источников.
Фильм снят Управлением Специальных Служб Министерства Обороны США и Министерством Связи.

Это открыто пропагандистский, но очень деликатный экземпляр кинопродукции того периода, чуть ли не единственный американский фильм, отдающий должное нашей борьбе с гитлеровцами в Великой Отечественной войне.

Страна: США
Студия: U.S. Army Special Service Division
Продолжительность: 01:22:49
Перевод: Одноголосый закадровый, профессиональный

Файл
Кодек: h.264
Качество: WEBRip 1080p
Видео: AVC MPEG-4, 1440x1080 (4:3), ~5900 Kbps, 24 fps
Звук: AC3, 2 ch, 384 Kbps (Русский)
AC3, 2 ch, 384 Kbps (Английский, оригинал)
[+] Mediainfo

General
Unique ID                   : 44811859657818532290581673322029772195 (0x21B67342C9F2A48690879792D4AFEDA3)
Complete name               : D:FilmThe Battle of Russia.mkv
Format                      : Matroska
Format version              : Version 4 / Version 2
File size                   : 3.86 GiB
Duration                    : 1 h 22 min
Overall bit rate mode       : Variable
Overall bit rate            : 6 676 kb/s
Encoded date                : UTC 2018-01-09 12:33:26
Writing application         : mkvmerge v19.0.0 ('Brave Captain') 64-bit
Writing library             : libebml v1.3.5 + libmatroska v1.4.8
Cover                       : Yes
Attachments                 : cover.png

Video
ID                          : 1
Format                      : AVC
Format/Info                 : Advanced Video Codec
Format profile              : High@L4
Format settings             : CABAC / 2 Ref Frames
Format settings, CABAC      : Yes
Format settings, RefFrames  : 2 frames
Format settings, GOP        : M=2, N=13
Codec ID                    : V_MPEG4/ISO/AVC
Duration                    : 1 h 22 min
Bit rate mode               : Variable
Bit rate                    : 5 904 kb/s
Maximum bit rate            : 6 400 kb/s
Width                       : 1 440 pixels
Height                      : 1 080 pixels
Display aspect ratio        : 4:3
Frame rate mode             : Constant
Frame rate                  : 24.000 FPS
Color space                 : YUV
Chroma subsampling          : 4:2:0
Bit depth                   : 8 bits
Scan type                   : Progressive
Bits/(Pixel*Frame)          : 0.158
Stream size                 : 3.42 GiB (88%)
Language                    : English
Default                     : Yes
Forced                      : No

Audio #1
ID                          : 2
Format                      : AC-3
Format/Info                 : Audio Coding 3
Format settings, Endianness : Big
Codec ID                    : A_AC3
Duration                    : 1 h 22 min
Bit rate mode               : Constant
Bit rate                    : 384 kb/s
Channel(s)                  : 2 channels
Channel positions           : Front: L R
Sampling rate               : 48.0 kHz
Frame rate                  : 31.250 FPS (1536 SPF)
Bit depth                   : 16 bits
Compression mode            : Lossy
Stream size                 : 227 MiB (6%)
Title                       : RU
Language                    : Russian
Service kind                : Complete Main
Default                     : Yes
Forced                      : No

Audio #2
ID                          : 3
Format                      : AC-3
Format/Info                 : Audio Coding 3
Format settings, Endianness : Big
Codec ID                    : A_AC3
Duration                    : 1 h 22 min
Bit rate mode               : Constant
Bit rate                    : 384 kb/s
Channel(s)                  : 2 channels
Channel positions           : Front: L R
Sampling rate               : 48.0 kHz
Frame rate                  : 31.250 FPS (1536 SPF)
Bit depth                   : 16 bits
Compression mode            : Lossy
Stream size                 : 227 MiB (6%)
Title                       : EN
Language                    : English
Service kind                : Complete Main
Default                     : No
Forced                      : No




Скриншоты:
[+] Всего файлов в раздаче - 1:
The Battle of Russia.mkv3.86 GB

Текущая раздача:
ДатаКомментарии    РазмерПиры
2018-01-11 U Битва за Россию / The Battle of Russia (1943) WEBRip 1080p 3.86 GB ↑ 48 ↓ 5

Показать еще раздачи по запросу битва:
Вчера U Битва преподов / Fist Fight (2017) BDRip-HEVC 1080p от HEVC CLUB | D, L | iTunes 6.85 GB ↑ 70 ↓ 38
2018-01-16 U Битва преподов / Fist Fight (2017) BDRip от MegaPeer | iTunes 744.93 MB ↑ 38 ↓ 13
2018-01-16 U Битва преподов / Fist Fight (2017) BDRip от MegaPeer | iTunes 1.42 GB ↑ 233 ↓ 140
2018-01-13 U National Geographic: Битва болотных драконов / Battle of the Swamp Dragons (2017) HDTVRip 720p | D 1.60 GB ↑ 50 ↓ 11
2018-01-10 U Битва за пределами звезд / Battle Beyond the Stars (1980) HDRip | Р1 1К1.55 GB ↑ 65 ↓ 31
2018-01-04 U Битва полов / Battle of the Sexes (2017) BDRip от HQ-ViDEO | Лицензия 2.18 GB ↑ 63 ↓ 22
2017-12-26 U Битва полов / Battle of the Sexes (2017) BDRip-AVC от New-Team | Лицензия 3.10 GB ↑ 47 ↓ 42

Отзывы
Зарегистрируйтесь чтобы добавить комментарий.
Обратная связь
Copyleft ©