↑↓Torrent.by
Поиск
Логин: Регистрация
Пароль: Восстановить пароль
Загрузка...

Афтершок / Aftershock (2012) HDRip-AVC от ExKinoRay | P

Скачать aftershok-aftershock-2012-hdrip-avc-ot-exkinoray-p.torrent
U Магнитная ссылка Размер: 745.47 MB Раздают: 60 Качают: 12 Добавлен: 2018-01-11 13:38:01
Афтершок / Aftershock (2012) HDRip-AVC от ExKinoRay | P

Название: Афтершок
Оригинальное название: Aftershock
Жанр:  ужасы, триллер, драма
Год выпуска: 2012
Режиссёр: Николас Лопез
В ролях: Элай Рот, Андреа Ошварт, Эриель Леви, Николас Мартинез, Лоренца Иззо, Наташа Яровенко, Селена Гомес, Игнасия Алламанд, Дайана Амиго, Пас Баскуньян

О фильме :
Неожиданное сильнейшее землетрясение сокрушает город. Клуб, в котором отдыхают молодые люди, рушится, превращаясь в ловушку. Друзья изо всех сил пытаются проделать себе путь на свободу, даже не подозревая какой ужас ждет их на поверхности: разрушенные тюрьмы и преступники, выбравшиеся на свободу, всеобщая паника, хаос… И теперь каждый сам за себя в жестокой битве за свою жизнь.

Выпущено: США, Чили
Продолжительность: 01:29:16
Перевод: Профессиональный (многоголосый, закадровый)

Файл
Формат: MKV
Качество: HDRip-AVC
Видео: MPEG-4 AVC, 768x432, ~ 1091 Кбит/с
Аудио:  AAC-LC, 2 ch, ~ 76 Кбит/с

Релиз:


[+] MI
Общее
Уникальный идентификатор : 244298162717258200117638643174543159148 (0xB7CA1D5C8F38DDA792A802795C936F6C)
Полное имя : D:MOVIESAftershock.2012.ExKinoRay.mkv
Формат : Matroska
Версия формата : Version 4 / Version 2
Размер файла : 745 Мбайт
Продолжительность : 1 ч. 29 м.
Общий поток : 1167 Кбит/сек
Дата кодирования : UTC 2018-01-10 12:42:31
Программа кодирования : mkvmerge v15.0.0 ('Duel with the Devil') 64-bit
Библиотека кодирования : libebml v1.3.5 + libmatroska v1.4.5

Видео
Идентификатор : 1
Формат : AVC
Формат/Информация : Advanced Video Codec
Профиль формата : High@L4.1
Параметр CABAC формата : Да
Параметр RefFrames формата : 10 кадров
Идентификатор кодека : V_MPEG4/ISO/AVC
Продолжительность : 1 ч. 29 м.
Битрейт : 1091 Кбит/сек
Ширина : 768 пикселей
Высота : 432 пикселя
Соотношение сторон : 16:9
Режим частоты кадров : Постоянный
Частота кадров : 23,976 (24000/1001) кадра/сек
Цветовое пространство : YUV
Субдискретизация насыщенности : 4:2:0
Битовая глубина : 8 бит
Тип развёртки : Прогрессивная
Бит/(Пиксели*Кадры) : 0.137
Размер потока : 696 Мбайт (93%)
Библиотека кодирования : x264 core 152 r2851kMod ba24899
Настройки программы : cabac=1 / ref=10 / deblock=1:-3:-3 / analyse=0x3:0x133 / me=umh / subme=11 / psy=1 / fade_compensate=0.00 / psy_rd=1.00:0.12 / mixed_ref=1 / me_range=32 / chroma_me=1 / trellis=2 / 8x8dct=1 / cqm=0 / deadzone=21,11 / fast_pskip=0 / chroma_qp_offset=-3 / threads=6 / lookahead_threads=1 / sliced_threads=0 / nr=0 / decimate=0 / interlaced=0 / bluray_compat=0 / constrained_intra=0 / bframes=10 / b_pyramid=2 / b_adapt=2 / b_bias=0 / direct=3 / weightb=1 / open_gop=0 / weightp=2 / keyint=240 / keyint_min=23 / scenecut=40 / intra_refresh=0 / rc_lookahead=40 / rc=2pass / mbtree=1 / bitrate=1091 / ratetol=1.0 / qcomp=0.60 / qpmin=0 / qpmax=69 / qpstep=4 / cplxblur=20.0 / qblur=0.5 / vbv_maxrate=50000 / vbv_bufsize=62500 / nal_hrd=none / filler=0 / ip_ratio=1.40 / aq=3:1.00
Default : Да
Forced : Нет

Аудио
Идентификатор : 2
Формат : AAC
Формат/Информация : Advanced Audio Codec
Профиль формата : LC
Идентификатор кодека : A_AAC
Продолжительность : 1 ч. 29 м.
Битрейт : 76,0 Кбит/сек
Каналы : 2 канала
Расположение каналов : Front: L R
Частота : 48,0 КГц
Частота кадров : 46,875 кадров/сек (1024 SPF)
Метод сжатия : С потерями
Задержка видео : 9 мс.
Размер потока : 48,5 Мбайт (7%)
Язык : Russian
Default : Да
Forced : Нет

Меню
00:00:00.000 : :Chapter 01
00:03:39.260 : :Chapter 02
00:07:31.742 : :Chapter 03
00:16:05.673 : :Chapter 04
00:23:28.407 : :Chapter 05
00:30:26.408 : :Chapter 06
00:38:32.185 : :Chapter 07
00:45:00.614 : :Chapter 08
00:50:40.955 : :Chapter 09
00:56:45.944 : :Chapter 10
01:04:07.177 : :Chapter 11
01:12:24.381 : :Chapter 12
01:20:05.843 : :Chapter 13
01:23:56.865 : :Chapter 14



Скриншоты:
[+] Всего файлов в раздаче - 1:
Aftershock.2012.ExKinoRay.mkv745.47 MB

Отзывы
polo19799@
Жёсткий фильм, но очень интересный! Спасибо большое за качество и размер и сам фильм!

Зарегистрируйтесь чтобы добавить комментарий.
Обратная связь
Copyleft ©