↑↓Torrent.by
Поиск
Логин: Регистрация
Пароль: Восстановить пароль
Загрузка...

Отправь их в ад, Мэлоун! / Give 'em Hell, Malone (2009) BDRip-AVC от ExKinoRay | P

Скачать otprav-ih-v-ad-meloun-give-em-hell-malone-2009-bdrip-avc-ot-exkinoray-p.torrent
U Магнитная ссылка Размер: 746.25 MB Раздают: 61 Качают: 12 Добавлен: 2018-01-11 15:54:32
Отправь их в ад, Мэлоун! / Give 'em Hell, Malone (2009) BDRip-AVC от ExKinoRay | P

Название: Отправь их в ад, Мэлоун!
Оригинальное название: Give 'em Hell, Malone
Год выхода: 2009
Жанр:  боевик, триллер, криминал
Режиссер: Рассел Малкэй
В ролях: Томас Джейн, Винг Рэймс, Эльза Патаки, Френч Стюарт, Лиленд Орсер, Крис Йен, Уильям Абади, Грегори Харрисон, Даг Хатчисон, Айлин Райан, Дэвид Эндриол, Том Олсон, Марк Хосэк, Мелоди Деферэйдж, Барт Хеймбургер, Патрик Тредуэй, Арман Джалайери, Гари Пирс, Дэйн Фаруелл, Девон Грейвз, Брэндон О’Нилл

О фильме :
Главный герой — матерый частный детектив Мэлоун, которого нанимают доставить безжалостному гангстеру Уитмору нечто ценное и загадочное. По пути Мэлоуну придется противостоять разномастным головорезам, киллерам и прочим отморозкам и любой ценой доставить доверенный ему груз.

Страна: США
Студия: Malone Productions, North by Northwest Entertainment, North by Northwest Productions
Продолжительность: 01:36:28
Перевод: Профессиональный (многоголосый закадровый) R5

Файл
Формат: MKV
Качество: BDRip-AVC (Blu-Ray Remux)
Видео: MPEG-4 AVC, 768x328, ~ 1003 Кбит/с
Аудио:  AAC-LC, 2 ch, ~ 76 Кбит/с
Субтитры: Русские, английские

Релиз:


[+] MI
Общее
Уникальный идентификатор : 249605215053015818209116782079967128175 (0xBBC8373E504FD4239D7F8B1213766A6F)
Полное имя : D:MOVIESGive.em.Hell.Malone.2009.ExKinoRay.mkv
Формат : Matroska
Версия формата : Version 4 / Version 2
Размер файла : 746 Мбайт
Продолжительность : 1 ч. 36 м.
Общий поток : 1081 Кбит/сек
Дата кодирования : UTC 2018-01-10 22:09:24
Программа кодирования : mkvmerge v15.0.0 ('Duel with the Devil') 64-bit
Библиотека кодирования : libebml v1.3.5 + libmatroska v1.4.5

Видео
Идентификатор : 1
Формат : AVC
Формат/Информация : Advanced Video Codec
Профиль формата : High@L4.1
Параметр CABAC формата : Да
Параметр RefFrames формата : 10 кадров
Идентификатор кодека : V_MPEG4/ISO/AVC
Продолжительность : 1 ч. 36 м.
Битрейт : 1003 Кбит/сек
Ширина : 768 пикселей
Высота : 328 пикселей
Соотношение сторон : 2,35:1
Режим частоты кадров : Постоянный
Частота кадров : 23,976 (24000/1001) кадра/сек
Цветовое пространство : YUV
Субдискретизация насыщенности : 4:2:0
Битовая глубина : 8 бит
Тип развёртки : Прогрессивная
Бит/(Пиксели*Кадры) : 0.166
Размер потока : 692 Мбайт (93%)
Библиотека кодирования : x264 core 152 r2851kMod ba24899
Настройки программы : cabac=1 / ref=10 / deblock=1:-3:-3 / analyse=0x3:0x133 / me=umh / subme=11 / psy=1 / fade_compensate=0.00 / psy_rd=1.00:0.04 / mixed_ref=1 / me_range=32 / chroma_me=1 / trellis=2 / 8x8dct=1 / cqm=0 / deadzone=21,11 / fast_pskip=0 / chroma_qp_offset=-3 / threads=6 / lookahead_threads=1 / sliced_threads=0 / nr=0 / decimate=0 / interlaced=0 / bluray_compat=0 / constrained_intra=0 / bframes=10 / b_pyramid=2 / b_adapt=2 / b_bias=0 / direct=3 / weightb=1 / open_gop=0 / weightp=2 / keyint=240 / keyint_min=23 / scenecut=40 / intra_refresh=0 / rc_lookahead=40 / rc=2pass / mbtree=1 / bitrate=1003 / ratetol=1.0 / qcomp=0.60 / qpmin=0 / qpmax=69 / qpstep=4 / cplxblur=20.0 / qblur=0.5 / vbv_maxrate=50000 / vbv_bufsize=62500 / nal_hrd=none / filler=0 / ip_ratio=1.40 / aq=3:1.00
Default : Да
Forced : Нет

Аудио
Идентификатор : 2
Формат : AAC
Формат/Информация : Advanced Audio Codec
Профиль формата : LC
Идентификатор кодека : A_AAC
Продолжительность : 1 ч. 36 м.
Битрейт : 76,0 Кбит/сек
Каналы : 2 канала
Расположение каналов : Front: L R
Частота : 48,0 КГц
Частота кадров : 46,875 кадров/сек (1024 SPF)
Метод сжатия : С потерями
Задержка видео : 9 мс.
Размер потока : 52,5 Мбайт (7%)
Язык : Russian
Default : Да
Forced : Нет

Текст #1
Идентификатор : 3
Формат : UTF-8
Идентификатор кодека : S_TEXT/UTF8
Идентификатор кодека/Информация : UTF-8 Plain Text
Продолжительность : 1 ч. 32 м.
Битрейт : 76 бит/сек
ElementCount : 991
Размер потока : 51,6 Кбайт (0%)
Язык : Russian
Default : Нет
Forced : Нет

Текст #2
Идентификатор : 4
Формат : UTF-8
Идентификатор кодека : S_TEXT/UTF8
Идентификатор кодека/Информация : UTF-8 Plain Text
Продолжительность : 1 ч. 30 м.
Битрейт : 62 бит/сек
ElementCount : 1290
Размер потока : 41,7 Кбайт (0%)
Язык : English
Default : Нет
Forced : Нет

Меню
00:00:00.000 : en:Chapter 1
00:05:55.730 : en:Chapter 2
00:10:56.238 : en:Chapter 3
00:17:34.636 : en:Chapter 4
00:26:25.375 : en:Chapter 5
00:31:59.459 : en:Chapter 6
00:39:41.921 : en:Chapter 7
00:45:46.285 : en:Chapter 8
00:50:32.612 : en:Chapter 9
00:55:11.599 : en:Chapter 10
01:00:45.516 : en:Chapter 11
01:04:48.134 : en:Chapter 12
01:10:26.096 : en:Chapter 13
01:16:55.902 : en:Chapter 14
01:22:41.414 : en:Chapter 15
01:32:04.268 : en:Chapter 16
01:36:28.157 : en:Chapter 17



Скриншоты:
[+] Всего файлов в раздаче - 1:
Give.em.Hell.Malone.2009.ExKinoRay.mkv746.25 MB

Отзывы
Зарегистрируйтесь чтобы добавить комментарий.
Обратная связь
Copyleft ©