↑↓Torrent.by
Поиск
Логин: Регистрация
Пароль: Восстановить пароль
Загрузка...

Оно / It (2017) BDRip 1080p от qqss44 & MegaPeer | Лицензия

Скачать ono-it-2017-bdrip-1080p-ot-qqss44-megapeer-licenziya.torrent
U Магнитная ссылка Размер: 7.57 GB Раздают: 1006 Качают: 51 Добавлен: 2018-01-11 17:29:12
Оно / It (2017) BDRip 1080p от qqss44 & MegaPeer | Лицензия

Анонсы 1080p от qqss44

Информация о фильме
Название: Оно
Оригинальное название: It
Год выпуска: 2017
Жанр: Ужасы, драма
Режиссер: Андрес Мускетти
В ролях: Джейден Либерер, Джереми Рэй Тейлор, София Лиллис, Финн Вулфард, Чоузен Джейкобс, Джек Грейзер, Уайатт Олефф, Билл Скарсгард, Николас Хэмилтон, Джейк Сим, Логан Томпсон, Оуэн Тиг, Джексон Роберт Скотт, Стивен Богерт, Стюарт Хьюз

О фильме:
В маленьком городке Дерри, штат Мэн, уже много веков орудует воплощение липкого ужаса под видом клоуна из бродячего шапито. Его жертвами становятся преимущественно подростки с неокрепшей психикой, которых он предварительно запугивает до аморфного состояния, чтобы затем устроить детишкам кровавую вакханалию в марсианском аду. Местные власти ничего не предпринимают, потому как искренне убеждены, что потерь нет. И лишь небольшая группа детских умов, называющая себя "Клубом Неудачников", успешно противостоит приемам карательной психиатрии. И теперь им придется не только пережить жесточайший кошмар в истории человечества, но и бросить вызов империи зла в ее самых демонических проявлениях.

Страна: США
Студия: New Line Cinema, KatzSmith Productions, Lin Pictures, RatPac-Dune Entertainment, Vertigo Entertainment
Продолжительность: 02:14:42
Перевод: Дублированный | Лицензия

Файл
Формат: MKV, BDRip 1080p
Видео: MPEG-4 AVC, 7600 Кбит/с, 1920x800
Aудио#1: [RUS] AC3 | 48 KHz | 5.1 (Front: L С R Side: L R) + LFE | ~448 kbps
Субтитры: русские (форсированные и полные)
Релиз от:


[+] МИ

Общее
Уникальный идентификатор                 : 170407198175930216130262969926494045210 (0x80333B89BF7322ED80C929891111C41A)
Полное имя                               : H:It.(2017).BDRip.1080p.MegaPeer.(qqss44).mkv
Формат                                   : Matroska
Версия формата                           : Version 2
Размер файла                             : 7,57 Гбайт
Продолжительность                        : 2 ч. 14 м.
Общий поток                              : 8044 Кбит/сек
Название фильма                          : It.(2017).BDRip.1080p.MegaPeer.(qqss44)
Дата кодирования                         : UTC 2018-01-11 10:58:14
Программа кодирования                    : mkvmerge v5.8.0 ('No Sleep / Pillow') built on Sep  2 2012 15:37:04
Библиотека кодирования                   : libebml v1.2.3 + libmatroska v1.3.0

Видео
Идентификатор                            : 1
Формат                                   : AVC
Формат/Информация                        : Advanced Video Codec
Профиль формата                          : High@L4.1
Параметр CABAC формата                   : Да
Параметр ReFrames формата                : 5 кадров
Идентификатор кодека                     : V_MPEG4/ISO/AVC
Продолжительность                        : 2 ч. 14 м.
Битрейт                                  : 7600 Кбит/сек
Ширина                                   : 1920 пикселей
Высота                                   : 800 пикселей
Соотношение сторон                       : 2,40:1
Режим частоты кадров                     : Постоянный
Частота кадров                           : 23,976 (24000/1001) кадра/сек
Цветовое пространство                    : YUV
Субдискретизация насыщенности            : 4:2:0
Битовая глубина                          : 8 бит
Тип развёртки                            : Прогрессивная
Бит/(Пиксели*Кадры)                      : 0.206
Размер потока                            : 7,00 Гбайт (92%)
Библиотека кодирования                   : x264 core 152 r2851kMod ba24899
Настройки программы                      : cabac=1 / ref=5 / deblock=1:-2:-2 / analyse=0x3:0x113 / me=umh / subme=11 / psy=1 / fade_compensate=0.00 / psy_rd=1.00:0.00 / mixed_ref=1 / me_range=32 / chroma_me=1 / trellis=2 / 8x8dct=1 / cqm=0 / deadzone=21,11 / fast_pskip=0 / chroma_qp_offset=-2 / threads=12 / lookahead_threads=2 / sliced_threads=0 / nr=0 / decimate=0 / interlaced=0 / bluray_compat=0 / constrained_intra=0 / bframes=9 / b_pyramid=2 / b_adapt=2 / b_bias=0 / direct=3 / weightb=1 / open_gop=0 / weightp=2 / keyint=240 / keyint_min=23 / scenecut=40 / intra_refresh=0 / rc_lookahead=40 / rc=2pass / mbtree=0 / bitrate=7600 / ratetol=1.0 / qcomp=0.65 / qpmin=0 / qpmax=69 / qpstep=4 / cplxblur=20.0 / qblur=0.5 / vbv_maxrate=50000 / vbv_bufsize=62500 / nal_hrd=none / filler=0 / ip_ratio=1.40 / pb_ratio=1.30 / aq=3:0.70
Язык                                     : English
Default                                  : Да
Forced                                   : Нет

Аудио
Идентификатор                            : 2
Формат                                   : AC-3
Формат/Информация                        : Audio Coding 3
Расширение режима                        : CM (complete main)
Параметр Endianness формата              : Big
Идентификатор кодека                     : A_AC3
Продолжительность                        : 2 ч. 14 м.
Вид битрейта                             : Постоянный
Битрейт                                  : 448 Кбит/сек
Каналы                                   : 6 каналов
Расположение каналов                     : Front: L C R, Side: L R, LFE
Частота                                  : 48,0 КГц
Частота кадров                           : 31,250 кадров/сек (1536 spf)
Метод сжатия                             : С потерями
Размер потока                            : 432 Мбайт (6%)
Язык                                     : Russian
Default                                  : Да
Forced                                   : Нет

Текст #1
Идентификатор                            : 3
Формат                                   : UTF-8
Идентификатор кодека                     : S_TEXT/UTF8
Идентификатор кодека/Информация          : UTF-8 Plain Text
Заголовок                                : FORCED
Язык                                     : Russian
Default                                  : Да
Forced                                   : Нет

Текст #2
Идентификатор                            : 4
Формат                                   : UTF-8
Идентификатор кодека                     : S_TEXT/UTF8
Идентификатор кодека/Информация          : UTF-8 Plain Text
Заголовок                                : FULL
Язык                                     : Russian
Default                                  : Нет
Forced                                   : Нет

Меню
00:00:00.000                             : en:Chapter 1
00:09:23.646                             : en:Chapter 2
00:18:31.860                             : en:Chapter 3
00:28:26.162                             : en:Chapter 4
00:38:36.981                             : en:Chapter 5
00:48:19.438                             : en:Chapter 6
00:59:30.775                             : en:Chapter 7
01:08:52.795                             : en:Chapter 8
01:16:58.822                             : en:Chapter 9
01:26:52.957                             : en:Chapter 10
01:38:15.306                             : en:Chapter 11
01:48:40.972                             : en:Chapter 12
02:04:07.898                             : en:Chapter 13
02:09:05.654                             : en:Chapter 14




Скриншоты:
[+] Всего файлов в раздаче - 1:
It.(2017).BDRip.1080p.MegaPeer.(qqss44).mkv7.57 GB

Текущая раздача:
ДатаКомментарии    РазмерПиры
2018-01-11 U Оно / It (2017) BDRip 1080p от qqss44 & MegaPeer | Лицензия 7.57 GB ↑ 1006 ↓ 51

Показать еще раздачи по запросу bdrip:
Сегодня U Пила 8 / Jigsaw (2017) BDRip 1080p от qqss44 & MegaPeer | iTunes 5.53 GB ↑ 54 ↓ 32
Сегодня U Мой любимый динозавр / My Pet Dinosaur (2017) BDRip 1080p | iTunes 8.91 GB ↑ 83 ↓ 64
Сегодня U Обет молчания / Acts of Vengeance (2017) BDRip от ExKinoRay | iTunes 1.42 GB ↑ 68 ↓ 12
Сегодня U Мой любимый динозавр / My Pet Dinosaur (2017) BDRip 720p | iTunes 5.02 GB ↑ 47 ↓ 26
Сегодня U Kingsman: Золотое кольцо / Kingsman: The Golden Circle (2017) BDRip-AVC от HELLYWOOD | Лицензия 2.18 GB ↑ 27 ↓ 6
Вчера U Пила 8 / Jigsaw (2017) BDRip-AVC от HELLYWOOD | iTunes 1.42 GB ↑ 95 ↓ 31
Вчера U Стань легендой! Бигфут Младший / The Son of Bigfoot (2017) BDRip 1080p от OlLanDGroup | RUS Transfer | Лицензия 6.83 GB ↑ 53 ↓ 24

Отзывы
Зарегистрируйтесь чтобы добавить комментарий.
Обратная связь
Copyleft ©