↑↓Torrent.by
Поиск
Логин: Регистрация
Пароль: Восстановить пароль
Загрузка...

Ван Гог. С любовью, Винсент / Loving Vincent (2017) BDRip 1080p | iTunes

Скачать van-gog-s-lyubovyu-vinsent-loving-vincent-2017-bdrip-1080p-itunes.torrent
U Магнитная ссылка Размер: 8.20 GB Раздают: 7 Качают: 58 Добавлен: 2018-01-11 17:29:38
Ван Гог. С любовью, Винсент / Loving Vincent (2017) BDRip 1080p | iTunes

Название: Ван Гог. С любовью, Винсент
Оригинальное название: Loving Vincent
Год выхода: 2017
Жанр: драма, криминал, биография, мультфильм
Режиссер: Дорота Кобела, Хью Уэлшман
В ролях: Дуглас Бут, Джош Бердетт, Холли Эрл, Робин Ходжес, Крис О’Дауд, Джон Сешнс, Хелен МакКрори, Элинор Томлинсон, Эйдан Тернер, Сирша Ронан

О фильме:
Фильм о жизни и загадочной смерти Винсента Ван Гога.

Страна: Великобритания, Польша
Продолжительность: 01:34:49
Перевод: Профессиональный (дублированный) iTunes

Файл
Формат: MKV
Видео: 1480x1080 at 23.976 fps, x264@L4.1, ~8428 kbps avg
Аудио#1: Russian: 48 kHz, AC3, 3/2 (L,C,R,l,r) + LFE ch, ~384.00 kbps avg
Аудио#2: English: 48 kHz, DTS-HD MA, 3/2 (L,C,R,l,r) + LFE ch, ~3577 kbps avg
Cубтитры: English

Семпл


[+] MediaInfo
General
Unique ID                   : 236921007341545130219307162705822957089 (0xB23D538513C3AAEBAE708F2C499F3E21)
Complete name               : Loving.Vincent.2017.BDRip.1080p.Rus.Eng.mkv
Format                      : Matroska
Format version              : Version 2
File size                   : 8.20 GiB
Duration                    : 1 h 34 min
Overall bit rate            : 12.4 Mb/s
Encoded date                : UTC 2018-01-10 19:25:59
Writing application         : mkvmerge v8.3.0 ('Over the Horizon') 64bit
Writing library             : libebml v1.3.1 + libmatroska v1.4.2

Video
ID                          : 1
Format                      : AVC
Format/Info                 : Advanced Video Codec
Format profile              : High@L4.1
Format settings             : CABAC / 5 Ref Frames
Format settings, CABAC      : Yes
Format settings, ReFrames   : 5 frames
Codec ID                    : V_MPEG4/ISO/AVC
Duration                    : 1 h 34 min
Bit rate                    : 8 428 kb/s
Width                       : 1 480 pixels
Height                      : 1 080 pixels
Display aspect ratio        : 1.370
Frame rate mode             : Constant
Frame rate                  : 23.976 (24000/1001) FPS
Color space                 : YUV
Chroma subsampling          : 4:2:0
Bit depth                   : 8 bits
Scan type                   : Progressive
Bits/(Pixel*Frame)          : 0.220
Stream size                 : 5.57 GiB (68%)
Writing library             : x264 core 148 r2597 e86f3a1
Encoding settings           : cabac=1 / ref=5 / deblock=1:0:0 / analyse=0x3:0x113 / me=umh / subme=10 / psy=1 / psy_rd=1.05:0.10 / mixed_ref=1 / me_range=48 / chroma_me=1 / trellis=2 / 8x8dct=1 / cqm=0 / deadzone=21,11 / fast_pskip=0 / chroma_qp_offset=-2 / threads=12 / lookahead_threads=1 / sliced_threads=0 / nr=0 / decimate=1 / interlaced=0 / bluray_compat=0 / constrained_intra=0 / bframes=6 / b_pyramid=2 / b_adapt=2 / b_bias=0 / direct=3 / weightb=1 / open_gop=0 / weightp=2 / keyint=250 / keyint_min=23 / scenecut=40 / intra_refresh=0 / rc=2pass / mbtree=0 / bitrate=8428 / ratetol=2.0 / qcomp=0.70 / qpmin=0 / qpmax=69 / qpstep=4 / cplxblur=20.0 / qblur=0.5 / ip_ratio=1.40 / pb_ratio=1.30 / aq=2:1.00
Default                     : Yes
Forced                      : No

Audio #1
ID                          : 2
Format                      : AC-3
Format/Info                 : Audio Coding 3
Codec ID                    : A_AC3
Duration                    : 1 h 34 min
Bit rate mode               : Constant
Bit rate                    : 384 kb/s
Channel(s)                  : 6 channels
Channel positions           : Front: L C R, Side: L R, LFE
Sampling rate               : 48.0 kHz
Frame rate                  : 31.250 FPS (1536 SPF)
Bit depth                   : 16 bits
Compression mode            : Lossy
Stream size                 : 260 MiB (3%)
Language                    : Russian
Service kind                : Complete Main
Default                     : No
Forced                      : No

Audio #2
ID                          : 3
Format                      : DTS
Format/Info                 : Digital Theater Systems
Format profile              : MA / Core
Codec ID                    : A_DTS
Duration                    : 1 h 34 min
Bit rate mode               : Variable / Constant
Bit rate                    : 3 577 kb/s / 1 152 kb/s
Channel(s)                  : 6 channels
Channel positions           : Front: L C R, Side: L R, LFE
Sampling rate               : 48.0 kHz
Frame rate                  : 93.750 FPS (512 SPF)
Bit depth                   : 24 bits
Compression mode            : Lossless / Lossy
Stream size                 : 2.37 GiB (29%)
Language                    : English
Default                     : No
Forced                      : No

Text
ID                          : 4
Format                      : PGS
Muxing mode                 : zlib
Codec ID                    : S_HDMV/PGS
Codec ID/Info               : Picture based subtitle format used on BDs/HD-DVDs
Duration                    : 1 h 32 min
Bit rate                    : 13.0 kb/s
Count of elements           : 1938
Stream size                 : 8.61 MiB (0%)
Language                    : English
Default                     : Yes
Forced                      : No



Скриншоты:
[+] Всего файлов в раздаче - 1:
Loving.Vincent.2017.BDRip.1080p.Rus.Eng.mkv8.20 GB

Текущая раздача:
ДатаКомментарии    РазмерПиры
2018-01-11 U Ван Гог. С любовью, Винсент / Loving Vincent (2017) BDRip 1080p | iTunes 2 К 8.20 GB ↑ 7 ↓ 58

Показать еще раздачи по запросу любовью:
2018-01-12 U Ван Гог. С любовью, Винсент / Loving Vincent (2017) BDRip от MegaPeer | iTunes 1.42 GB ↑ 131 ↓ 72
2018-01-12 U Ван Гог. С любовью, Винсент / Loving Vincent (2017) HDRip от MegaPeer | iTunes 769.33 MB ↑ 30 ↓ 7
2018-01-11 U Ван Гог. С любовью, Винсент / Loving Vincent (2017) HDRip от MegaPeer | iTunes 1.46 GB ↑ 178 ↓ 79
2017-12-02 U Из Уфы с любовью (2017) WEB-DLRip от GeneralFilm 757.49 MB ↑ 169 ↓ 68
2017-12-02 U Из Уфы с любовью (2017) WEBRip-AVC от Files-x 1.37 GB ↑ 105 ↓ 58
2017-12-01 U Из Уфы с любовью (2017) WEBRip от Files-x 1К1.37 GB ↑ 625 ↓ 221
2017-12-01 U Из Уфы с любовью (2017) WEB-DLRip 1080p от MediaClub 3.37 GB ↑ 359 ↓ 265

Отзывы
hakker13
Весь мультфильм снят в стиле анимированных картин Ван Гога.Супер.

гондель
Скриншоты, как картины...

Зарегистрируйтесь чтобы добавить комментарий.
Обратная связь
Copyleft ©