↑↓Torrent.by
Поиск
Логин: Регистрация
Пароль: Восстановить пароль
Загрузка...

Вторая молодость (2017) HDTVRip от Portablius

Скачать vtoraya-molodost-2017-hdtvrip-ot-portablius.torrent
U Магнитная ссылка Размер: 696.15 MB Раздают: 31 Качают: 15 Добавлен: 2018-01-12 08:35:06
Вторая молодость (2017) HDTVRip от Portablius

Оригинальное название: Вторая молодость
Год выхода: 2017
Жанр: Мелодрама
Режиссер: Максим Субботин
В ролях: Алёна Хмельницкая, Евгений Шириков, Дмитрий Ячевский, Прохор Дубравин, Марина Митрофанова, Галина Кашковская, Александр Песков, Анастасия Дубровина, Ольга Богомазова, Илья Сологуб

О фильме: Проработав двадцать лет в галерее, Ирина (Алена Хмельницкая), наконец, решает уволиться, чтобы посвятить себя дому и семье. Однако вскоре выясняется, что ни мужу, ни взрослым дочерям ее заботы не нужны. Ее муж Борис (Дмитрий Ячевский) - владелец строительного бизнеса, с утра до ночи пропадает на стройке, старшая дочь живет с семьей за границей, а младшая Юля (Марина Митрофанова) увлечена романом с женатым мужчиной (Прохор Дубравин). Ира пытается отговорить дочь от этой связи, но та просит мать не лезть в ее жизнь. Чтобы занять себя, Ирина идет учиться в школу живописи. В нее влюбляется молодой и талантливой педагог и художник Максим (Евгений Шириков). Вопреки значительной разнице в возрасте и другим серьезным обстоятельствам у них начинается роман. Ирина корит себя за легкомыслие, ведь все это может разрушить ее семью, но ничего не может поделать… в сорок пять лет у нее начинается вторая молодость.

Страна: Россия
Студия: BUBBLEGUM PRODUCTION, Калейдоскоп Фильм
Продолжительность: 01:39:46
Перевод: Не Требуется
Субтитры: Нет

Файл
Кодек: XviD
Качество: HDTVRip
Видео: 640x352 (1.82:1), 25 fps, XviD build 73 ~837 kbps avg, 0.15 bit/pixel
Звук: 48 kHz, MPEG Layer 3, 2 ch, ~128.00 kbps avg


[+] MediaInfo
General
Complete name               : Vtoraya.Molodost.2017.HDTVRip.ot.Portablius.avi
Format                      : AVI
Format/Info                 : Audio Video Interleave
File size                   : 696 MiB
Duration                    : 1 h 39 min
Overall bit rate            : 976 kb/s
Writing application         : VirtualDubMod 1.5.10.3 | www.virtualdub-fr.org || (build 2550/release)
Writing library             : VirtualDubMod build 2550/release

Video
ID                          : 0
Format                      : MPEG-4 Visual
Format profile              : Advanced Simple@L5
Format settings, BVOP       : 1
Format settings, QPel       : No
Format settings, GMC        : No warppoints
Format settings, Matrix     : Custom
Codec ID                    : XVID
Codec ID/Hint               : XviD
Duration                    : 1 h 39 min
Bit rate                    : 838 kb/s
Width                       : 640 pixels
Height                      : 352 pixels
Display aspect ratio        : 16:9
Frame rate                  : 25.000 FPS
Color space                 : YUV
Chroma subsampling          : 4:2:0
Bit depth                   : 8 bits
Scan type                   : Progressive
Compression mode            : Lossy
Bits/(Pixel*Frame)          : 0.149
Stream size                 : 598 MiB (86%)
Writing library             : XviD 73

Audio
ID                          : 1
Format                      : MPEG Audio
Format version              : Version 1
Format profile              : Layer 3
Codec ID                    : 55
Codec ID/Hint               : MP3
Duration                    : 1 h 39 min
Bit rate mode               : Constant
Bit rate                    : 128 kb/s
Channel(s)                  : 2 channels
Sampling rate               : 48.0 kHz
Compression mode            : Lossy
Stream size                 : 91.3 MiB (13%)
Alignment                   : Aligned on interleaves
Interleave, duration        : 40  ms (1.00 video frame)
Interleave, preload duratio : 504  ms
Writing library             : LAME3.99r
Encoding settings           : -m s -V 4 -q 2 -lowpass 17 -b 128




Скриншоты:
[+] Всего файлов в раздаче - 1:
Vtoraya.Molodost.2017.HDTVRip.ot.Portablius.avi696.15 MB

Текущая раздача:
ДатаКомментарии    РазмерПиры
2018-01-12 U Вторая молодость (2017) HDTVRip от Portablius 696.15 MB ↑ 31 ↓ 15

Показать еще раздачи по запросу вторая:
2018-03-27 U Лига смеха. Вторая 1/16 финала [04x04] (2018) WEB-DL 1080p 3.07 GB ↑ 65 ↓ 13
2018-02-25 U КВН-2018. Высшая лига. 1/8 финала. Игра вторая [25.02] (2018) HDTVRip от GeneralFilm 1.60 GB ↑ 836 ↓ 597
2018-02-25 U КВН-2018. Высшая лига. 1/8 финала. Игра вторая [25.02] (2018) HDTV 1080i от GeneralFilm 6.74 GB ↑ 417 ↓ 728
2018-01-09 U Вторая молодость (2017) HDTVRip 720p от MediaClub 2.57 GB ↑ 74 ↓ 22
2018-01-08 U Вторая молодость (2017) WEB-DLRip-AVC от Files-x 1.37 GB ↑ 98 ↓ 72
2018-01-08 U Вторая молодость (2017) WEB-DLRip от Files-x 1.37 GB ↑ 163 ↓ 75
2017-11-13 U КВН-2017. Высшая лига. 1/2 финала. Игра вторая [12.11] (2017) WEB-DL 1080p 3.09 GB ↑ 354 ↓ 128

Отзывы
Зарегистрируйтесь чтобы добавить комментарий.
Обратная связь
Copyleft ©