↑↓Torrent.by
Поиск
Логин: Регистрация
Пароль: Восстановить пароль
Загрузка...

Секретные материалы / The X-Files [11x01-02 из 10] (2018) WEBRip 720p | TB3

Скачать sekretnye-materialy-the-x-files-11x01-02-iz-10-2018-webrip-720p-tb3.torrent
U Магнитная ссылка Размер: 2.11 GB Раздают: 56 Качают: 165 Добавлен: 2018-01-12 13:49:11
Секретные материалы / The X-Files [11x01-02 из 10] (2018) WEBRip 720p | TB3

Название: Секретные материалы
Оригинальное название: The X-Files
Год выхода: 2018
Жанр: Фантастика, триллер, драма, детектив
Режиссеры: Крис Картер, Дэрин Морган, Глен Морган

В ролях: Дэвид Духовны, Джиллиан Андерсон, Митч Пиледжи, Уильям Б. Дэвис, Робби Амелл, Том Брэйдвуд, Дин Хэглунд, Брюс Харвуд, Джоэл МакХэйл, Лорен Эмброуз др.

О сериале: Специальные агенты ФБР, Фокс Малдер и Дана Скалли, снова работают вместе, чтобы расследовать странные и необъяснимые дела, связанные с паранормальными явлениями.


Производство: США / 20th Century Fox Television, Ten Thirteen Productions
Продолжительность: ~00:45:00
Перевод: Дублированный  
Субтитры: Отсутствуют

Файл
Формат: MKV
Качество: WEBRip 720р

Видео: MPEG-4 AVC, ~ 3500 Кбит/с, 1280x720
Аудио RUS: AAC, 44.1 kHz, 2 ch, 192 kbps


[+] Список серий
1. Моя борьба III / My Struggle III
2. Это / This



[+] Информация
Рип с сайта ТВ-3 (локализован видеоряд: в 1-й серии только заставка, во 2-й - заставка и экранные надписи).



[+] MediaInfo
General
Unique ID : 253586035708379488558745266746592981202 (0xBEC6E4DAE2974B69B8B85FE9458DF0D2)
Complete name : The.X-Files.S11E01.720p.WEBRip.Rus.mkv
Format : Matroska
Format version : Version 4 / Version 2
File size : 1.03 GiB
Duration : 39 min 53 s
Overall bit rate : 3 714 kb/s
Encoded date : UTC 2018-01-11 21:27:47
Writing application : mkvmerge v19.0.0 ('Brave Captain') 64-bit
Writing library : libebml v1.3.5 + libmatroska v1.4.8
Video
ID : 1
Format : AVC
Format/Info : Advanced Video Codec
Format profile : High@L3.1
Format settings, CABAC : Yes
Format settings, ReFrames : 1 frame
Format settings, GOP : M=1, N=12
Codec ID : V_MPEG4/ISO/AVC
Duration : 39 min 53 s
Bit rate : 3 519 kb/s
Width : 1 280 pixels
Height : 720 pixels
Display aspect ratio : 16:9
Frame rate mode : Constant
Frame rate : 25.000 FPS
Standard : Component
Color space : YUV
Chroma subsampling : 4:2:0
Bit depth : 8 bits
Scan type : Progressive
Bits/(Pixel*Frame) : 0.153
Stream size : 1 004 MiB (95%)
Language : Russian
Default : Yes
Forced : No
Color range : Limited
Audio
ID : 2
Format : AAC
Format/Info : Advanced Audio Codec
Format profile : LC
Codec ID : A_AAC
Duration : 39 min 53 s
Bit rate : 192 kb/s
Channel(s) : 2 channels
Channel positions : Front: L R
Sampling rate : 44.1 kHz
Frame rate : 43.066 FPS (1024 spf)
Compression mode : Lossy
Stream size : 54.8 MiB (5%)
Language : Russian
Default : Yes
Forced : No



Скриншоты:
[+] Всего файлов в раздаче - 2:
The.X-Files.S11E02.720p.WEBRip.Rus.mkv1.07 GB
The.X-Files.S11E01.720p.WEBRip.Rus.mkv1.03 GB

Текущая раздача:
ДатаКомментарии    РазмерПиры
2018-01-12 U Секретные материалы / The X-Files [11x01-02 из 10] (2018) WEBRip 720p | TB3 2.11 GB ↑ 56 ↓ 165

Показать еще раздачи по запросу секретные:
2018-01-21 U Секретные материалы / The X-Files [11x01-03 из 10] (2018) WEB-DL 1080p | LostFilm 10.83 GB ↑ 65 ↓ 21
2018-01-21 U Секретные материалы / The X-Files [11x01-03 из 10] (2018) WEB-DLRip | LostFilm 1.60 GB ↑ 93 ↓ 33
2018-01-19 U Секретные материалы / The X-Files [11x01-03 из 10] (2018) WEBRip 720p | ColdFilm 3.80 GB ↑ 48 ↓ 131
2018-01-19 U Секретные материалы / The X-Files [11x01-03 из 10] (2018) WEBRip | ColdFilm 1.15 GB ↑ 59 ↓ 140
2018-01-14 U Секретные материалы / The X-Files [11х01-02 из 10] (2018) WEBRip 1080p | TB3 6.94 GB ↑ 53 ↓ 68
2018-01-14 U Секретные материалы / The X-Files [11x01-02 из 10] (2018) WEB-DL 1080p | LostFilm 6.98 GB ↑ 27 ↓ 39
2018-01-14 U Секретные материалы / The X-Files [11x01-02 из 10] (2018) WEB-DLRip | LostFilm 1.06 GB ↑ 56 ↓ 43

Отзывы
Зарегистрируйтесь чтобы добавить комментарий.
Обратная связь
Copyleft ©