↑↓Torrent.by
Поиск
Логин: Регистрация
Пароль: Восстановить пароль
Загрузка...

Грань будущего / Edge of Tomorrow (2014) BDRip-HEVC 720p от R.G. HD-Films | 60 fps

Скачать gran-buduschego-edge-of-tomorrow-2014-bdrip-hevc-720p-ot-r-g-hd-films-60-fps.torrent
U Магнитная ссылка Размер: 4.29 GB Раздают: 105 Качают: 62 Добавлен: 2018-01-13 01:08:02
Грань будущего / Edge of Tomorrow (2014) BDRip-HEVC 720p от R.G. HD-Films | 60 fps

Грань будущего / Edge of Tomorrow
Год выпуска: 2014
Страна: США, Австралия
Жанр:  фантастика, боевик
Продолжительность: 01:53:29
Перевод: Dub, Original
Субтитры: русские (форс.), русские (x3), английские (Full), английские (SDH), английские (SDH-Colored)
Режиссер: Даг Лайман

Рейтинг
imdb.com: 8.00 (174 327)
MPAA: PG-13 - Детям до 13 лет просмотр не желателен

В ролях: Том Круз (Cage), Эмили Блант (Rita), Билл Пэкстон (Master Sergeant Farell), Брендан Глисон (General Brigham), Ноа Тейлор (Dr. Carter), Джонас Армстронг (Skinner), Тони Вэй (Kimmel), Кик Гарри (Griff), Франц Драмех (Ford), Драгомир Мрсич (Kuntz), Шарлотта Райли (Nance), Масаёси Ханэда (Takeda)

Описание: В недалёком будущем раса инопланетян вторгается на Землю. Никакая армия в мире не может противостоять им. Майор Уильям Кейдж умирает в бою, но случается невозможное - он оказывается во временной петле. Раз за разом он попадает в один и тот же бой, сражается и умирает... снова и снова. И каждое повторяющееся сражение приближает его к разгадке того, как победить врага.

Доп. информация: Сделано на основе 14-го обновления с применением технологии HEVC.

Качество: BDRip 720p / 60 FPS by Tiberiumsun69
Формат: MKV
Видео кодек: H.265
Аудио кодек: AC3
Видео: HEVC, 1280x534 (2.40:1), 4000 kbps, 60.000 fps, 0.100 bpp
Аудио#1: AC3 / 5.1 / 48 kHz / 640 kbps / 16 bit | DUB - Blu-ray CEE
Аудио#2: AC3 / 5.1 / 48 kHz / 640 kbps / 16 bit | Original



[+] MediaInfo
General
Unique ID                   : 119016521349724214221063141297969906134 (0x5989BF8C4A8B5F22BEC4850C833B41D6)
Complete name               : F:ТоррентыГрань будущего BDRip-HEVC 720p 60fps.mkv
Format                      : Matroska
Format version              : Version 4 / Version 2
File size                   : 4.29 GiB
Duration                    : 1 h 53 min
Overall bit rate            : 5 405 kb/s
Movie name                  : Edge of Tomorrow (2014) by Tiberiumsun69
Encoded date                : UTC 2018-01-12 11:30:04
Writing application         : mkvmerge v19.0.0 ('Brave Captain') 64-bit
Writing library             : libebml v1.3.5 + libmatroska v1.4.8

Video
ID                          : 1
Format                      : HEVC
Format/Info                 : High Efficiency Video Coding
Format profile              : Main 10@L4@Main
Codec ID                    : V_MPEGH/ISO/HEVC
Duration                    : 1 h 53 min
Bit rate                    : 4 120 kb/s
Width                       : 1 280 pixels
Height                      : 534 pixels
Display aspect ratio        : 2.40:1
Frame rate mode             : Constant
Frame rate                  : 60.000 FPS
Color space                 : YUV
Chroma subsampling          : 4:2:0
Bit depth                   : 10 bits
Bits/(Pixel*Frame)          : 0.100
Stream size                 : 3.27 GiB (76%)
Language                    : English
Default                     : Yes
Forced                      : No
Color range                 : Full
Color primaries             : BT.601 NTSC
Transfer characteristics    : BT.601
Matrix coefficients         : BT.601

Audio #1
ID                          : 2
Format                      : AC-3
Format/Info                 : Audio Coding 3
Codec ID                    : A_AC3
Duration                    : 1 h 53 min
Bit rate mode               : Constant
Bit rate                    : 640 kb/s
Channel(s)                  : 6 channels
Channel positions           : Front: L C R, Side: L R, LFE
Sampling rate               : 48.0 kHz
Frame rate                  : 31.250 FPS (1536 SPF)
Bit depth                   : 16 bits
Compression mode            : Lossy
Stream size                 : 520 MiB (12%)
Title                       : Dub | DD 5.1 @ 640 kbps - Blu-ray CEE
Language                    : Russian
Service kind                : Complete Main
Default                     : Yes
Forced                      : No

Audio #2
ID                          : 3
Format                      : AC-3
Format/Info                 : Audio Coding 3
Codec ID                    : A_AC3
Duration                    : 1 h 53 min
Bit rate mode               : Constant
Bit rate                    : 640 kb/s
Channel(s)                  : 6 channels
Channel positions           : Front: L C R, Side: L R, LFE
Sampling rate               : 48.0 kHz
Frame rate                  : 31.250 FPS (1536 SPF)
Bit depth                   : 16 bits
Compression mode            : Lossy
Stream size                 : 520 MiB (12%)
Title                       : Original | DD 5.1 @ 640 kbps
Language                    : English
Service kind                : Complete Main
Default                     : No
Forced                      : No

Text #1
ID                          : 4
Format                      : UTF-8
Codec ID                    : S_TEXT/UTF8
Codec ID/Info               : UTF-8 Plain Text
Duration                    : 1 h 44 min
Bit rate                    : 1 b/s
Count of elements           : 17
Stream size                 : 801 Bytes (0%)
Title                       : Forced
Language                    : Russian
Default                     : Yes
Forced                      : No

Text #2
ID                          : 5
Format                      : UTF-8
Codec ID                    : S_TEXT/UTF8
Codec ID/Info               : UTF-8 Plain Text
Duration                    : 1 h 45 min
Bit rate                    : 86 b/s
Count of elements           : 1443
Stream size                 : 67.1 KiB (0%)
Title                       : iTunes
Language                    : Russian
Default                     : No
Forced                      : No

Text #3
ID                          : 6
Format                      : UTF-8
Codec ID                    : S_TEXT/UTF8
Codec ID/Info               : UTF-8 Plain Text
Duration                    : 1 h 45 min
Bit rate                    : 90 b/s
Count of elements           : 1324
Stream size                 : 70.1 KiB (0%)
Title                       : Voronine
Language                    : Russian
Default                     : No
Forced                      : No

Text #4
ID                          : 7
Format                      : UTF-8
Codec ID                    : S_TEXT/UTF8
Codec ID/Info               : UTF-8 Plain Text
Duration                    : 1 h 47 min
Bit rate                    : 90 b/s
Count of elements           : 1453
Stream size                 : 71.3 KiB (0%)
Title                       : SDH
Language                    : Russian
Default                     : No
Forced                      : No

Text #5
ID                          : 8
Format                      : UTF-8
Codec ID                    : S_TEXT/UTF8
Codec ID/Info               : UTF-8 Plain Text
Duration                    : 1 h 45 min
Bit rate                    : 55 b/s
Count of elements           : 1452
Stream size                 : 42.6 KiB (0%)
Title                       : Full
Language                    : English
Default                     : No
Forced                      : No

Text #6
ID                          : 9
Format                      : UTF-8
Codec ID                    : S_TEXT/UTF8
Codec ID/Info               : UTF-8 Plain Text
Duration                    : 1 h 53 min
Bit rate                    : 54 b/s
Count of elements           : 1513
Stream size                 : 45.3 KiB (0%)
Title                       : SDH
Language                    : English
Default                     : No
Forced                      : No

Text #7
ID                          : 10
Format                      : UTF-8
Codec ID                    : S_TEXT/UTF8
Codec ID/Info               : UTF-8 Plain Text
Duration                    : 1 h 53 min
Bit rate                    : 65 b/s
Count of elements           : 1513
Stream size                 : 54.0 KiB (0%)
Title                       : SDH-Colored
Language                    : English
Default                     : No
Forced                      : No

Menu
00:00:00.000                : en:(01)00:00:00:000
00:10:28.168                : en:(02)00:10:28:168
00:17:39.098                : en:(03)00:17:39:098
00:24:50.195                : en:(04)00:24:50:195
00:35:57.947                : en:(05)00:35:57:947
00:46:27.284                : en:(06)00:46:27:284
00:54:34.771                : en:(07)00:54:34:771
01:04:59.561                : en:(08)01:04:59:561
01:12:53.077                : en:(09)01:12:53:077
01:23:08.899                : en:(10)01:23:08:899
01:32:34.131                : en:(11)01:32:34:131
01:42:53.583                : en:(12)01:42:53:583
01:45:46.213                : en:(13)01:45:46:213
01:53:29.219                : en:(14)01:53:29:219



Скриншоты:
[+] Всего файлов в раздаче - 1:
Грань будущего BDRip-HEVC 720p 60fps.mkv4.29 GB

Текущая раздача:
ДатаКомментарии    РазмерПиры
2018-01-13 U Грань будущего / Edge of Tomorrow (2014) BDRip-HEVC 720p от R.G. HD-Films | 60 fps 4.29 GB ↑ 105 ↓ 62

Показать еще раздачи по запросу грань:
2014-09-28 U Грань будущего / Edge of Tomorrow (2014) BDRip-AVC от HELLYWOOD | Лицензия 1К1.46 GB ↑ 1008 ↓ 227
2014-09-27 U Грань будущего / Edge of Tomorrow (2014) HDRip от Scarabey | Лицензия 796.82 MB ↑ 2303 ↓ 416
2014-09-21 U Грань будущего / Edge of Tomorrow (2014) BDRip 1080p от Neofilm | iTunes 11.96 GB ↑ 415 ↓ 481
2014-09-14 U Грань будущего / Edge of Tomorrow (2014) WEB-DLRip-AVC | iTunes, A 1К2.75 GB ↑ 607 ↓ 279
2014-09-11 U Грань будущего / Edge of Tomorrow (2014) WEB-DLRip от Scarabey | iTunes 2.21 GB ↑ 664 ↓ 608
2014-09-10 U Грань будущего / Edge of Tomorrow (2014) WEB-DLRip от Scarabey | Чистый звук 1К793.74 MB ↑ 409 ↓ 249
2014-09-09 U Грань будущего / Edge of Tomorrow (2014) WEB-DL 720p | Чистый звук 3.86 GB ↑ 5192 ↓ 6452

Отзывы
Зарегистрируйтесь чтобы добавить комментарий.
Обратная связь
Copyleft ©